Ивановский Торрент трекер
Яндекс.Погода
 

[Цитировать]
HUNTER

Миром правит толстый мальчик / Fat Kid Rules the World
Страна: США
Жанр: комедия, музыкальный
Год выпуска: 2012
Продолжительность: 01:39:16
Перевод: Любительский (многоголосый закадровый) RATTLEBOX
Cубтитры: нет
Оригинальная аудиодорожка: английский
Режиссер: Мэттью Лиллард
В ролях: Джакоб Уайсоки, Мэтью О’Лири, Билл Кэмпбелл, Дилан Арнольд, Расселл Ходжкинсон, Шон Донован, Джулиан Хавиланес, Лили Симмонс, Джеффри Дорнбос.
Описание: Фильм рассказывает о толстом мальчишке, у которого нет друзей. Доведенный до отчаяния, мальчик пытается совершить самоубийство, но его спасает случайный прохожий — восемнадцатилетний гитарист и поклонник панк-рока Маркус, ведущий полубродяжнический образ жизни. Такая внезапная встреча приводит к тому, что главный герой становится барабанщиком в группе Маркуса, и этому не препятствует ни то, что мальчик в жизни не сидел за барабанами, ни то, что его отец считает Маркуса наркоманом…
Доп. информация: Приз зрительских симпатий на фестивале SXSW 2012
Фильм снят по одноименному роману К.Л. Гоинга
Дебют в качестве режиссера Мэттью Лилларда. Актера известного по фильмам Хакеры, Крик, Одержимость
Сэмпл: https://www.sendspace.com/file/beam1v
Качество видео: HDTVRip 720p
Формат видео: MKV
Видео: AVC, 1280х720, 23.98 fps , 2659 Kbps
Аудио: AC3, 48kHz, 6ch, 448 Kbps
Аудио 2: AC3, 48kHz, 6ch, 384 Kbps

MediaInfo

General
Unique ID : 213617099957598881439271178691094698377 (0xA0B5282D7DE7FC2285D59B628076D989)
Complete name : /Volumes/STORAGE/TORRENTs/TORRENTS/Fat.Kid.Rules.The.World.NORDiC.720p.HDTV.x264-HCEA (RATTLEBOX).mkv
Format : Matroska
Format version : Version 4 / Version 2
File size : 2.45 GiB
Duration : 1h 39mn
Overall bit rate : 3 529 Kbps
Encoded date : UTC 2016-10-05 22:38:58
Writing application : mkvmerge v9.4.2 ('So High') 64bit
Writing library : libebml v1.3.4 + libmatroska v1.4.5
Video
ID : 1
Format : AVC
Format/Info : Advanced Video Codec
Format profile : High@L4.1
Format settings, CABAC : Yes
Format settings, ReFrames : 5 frames
Codec ID : V_MPEG4/ISO/AVC
Duration : 1h 39mn
Bit rate : 2 695 Kbps
Width : 1 280 pixels
Height : 720 pixels
Display aspect ratio : 16:9
Frame rate mode : Constant
Frame rate : 23.976 (24000/1001) fps
Color space : YUV
Chroma subsampling : 4:2:0
Bit depth : 8 bits
Scan type : Progressive
Bits/(Pixel*Frame) : 0.122
Stream size : 1.87 GiB (76%)
Writing library : x264 core 128 r2216 198a7ea
Encoding settings : cabac=1 / ref=5 / deblock=1:0:0 / analyse=0x3:0x113 / me=umh / subme=8 / psy=1 / psy_rd=1.00:0.00 / mixed_ref=1 / me_range=16 / chroma_me=1 / trellis=1 / 8x8dct=1 / cqm=0 / deadzone=21,11 / fast_pskip=1 / chroma_qp_offset=-2 / threads=12 / lookahead_threads=2 / sliced_threads=0 / nr=0 / decimate=1 / interlaced=0 / bluray_compat=0 / constrained_intra=0 / bframes=3 / b_pyramid=2 / b_adapt=2 / b_bias=0 / direct=3 / weightb=1 / open_gop=0 / weightp=2 / keyint=250 / keyint_min=23 / scenecut=40 / intra_refresh=0 / rc_lookahead=50 / rc=crf / mbtree=1 / crf=18.0 / qcomp=0.60 / qpmin=0 / qpmax=69 / qpstep=4 / ip_ratio=1.40 / aq=1:1.00
Language : English
Default : No
Forced : No
Audio #1
ID : 2
Format : AC-3
Format/Info : Audio Coding 3
Mode extension : CM (complete main)
Format settings, Endianness : Big
Codec ID : A_AC3
Duration : 1h 39mn
Bit rate mode : Constant
Bit rate : 448 Kbps
Channel(s) : 6 channels
Channel positions : Front: L C R, Side: L R, LFE
Sampling rate : 48.0 KHz
Frame rate : 31.250 fps (1536 spf)
Compression mode : Lossy
Stream size : 318 MiB (13%)
Title : RATTLEBOX
Language : Russian
Default : Yes
Forced : No
Audio #2
ID : 3
Format : AC-3
Format/Info : Audio Coding 3
Mode extension : CM (complete main)
Format settings, Endianness : Big
Codec ID : A_AC3
Duration : 1h 39mn
Bit rate mode : Constant
Bit rate : 384 Kbps
Channel(s) : 6 channels
Channel positions : Front: L C R, Side: L R, LFE
Sampling rate : 48.0 KHz
Frame rate : 31.250 fps (1536 spf)
Compression mode : Lossy
Stream size : 273 MiB (11%)
Default : No
Forced : No

Скриншот c названием фильма

Скриншоты






Показать сообщения:    

Текущее время: 22-Окт 16:21

Часовой пояс: UTC - 1


Вы не можете начинать темы
Вы не можете отвечать на сообщения
Вы не можете редактировать свои сообщения
Вы не можете удалять свои сообщения
Вы не можете голосовать в опросах
Вы не можете прикреплять файлы к сообщениям
Вы не можете скачивать файлы

!ВНИМАНИЕ!
Сайт не предоставляет электронные версии произведений, а занимается лишь коллекционированием и каталогизацией ссылок, присылаемых и публикуемых на форуме нашими читателями. Если вы являетесь правообладателем какого-либо представленного материала и не желаете, чтобы ссылка на него находилась в нашем каталоге, свяжитесь с нами, и мы незамедлительно удалим ее. Файлы для обмена на трекере предоставлены пользователями сайта, и администрация не несет ответственности за их содержание. Просьба не заливать файлы, защищенные авторскими правами, а также файлы нелегального содержания!