Важное объявление!
У Нас Все раздачи мультитрекерные, при нуле пиров в релизах, можете смело вставать на закачку!
 
Автор Сообщение

HUNTER

Стаж:
4 года 5 месяцев
Сообщений:
60866

Репутация: 101

[+] [-]
Вне форума [Профиль] [ЛС]



Миньoны | Miniоns
«Ой, всё»
-
Страна: США | Illumination Entertainment
Жанр: комедия, семейный
Продолжительность: 01:30:58
Год выпуска: 2015
Перевод: Профессиональный (дублированный) Blu-ray СEE
Русские субтитры: есть
Режиссёр: Кaйл Бaлда / Kyle Bаlda, Пьер Коффан / Pierre Coffin
Роли озвучивали: Сандра Буллок, Джон Хэмм, Майкл Китон, Эллисон Дженни, Стив Куган, Дженнифер Сондерс, Джеффри Раш, Стив Карелл, Пьер Соффин, Кэти Миксон-ОписаниеМиньоны живут на планете гораздо дольше нас. У них одна навязчивая идея — служить самой Гадкой личности из имеющихся в наличии. Динозавры, фараоны, Дракула, Наполеон — все они оказались недолговечны. И тогда миньоны рванули в Нью-Йорк. Их ждут деньги, власть, роковая суперзлодейка Скарлет Оверкилл и, конечно же, вкуснейшая «банана»! Во всяком случае, так им кажется.-
Миньоны (англ. Minions — американская анимационная комедия, релиз которой состоялся летом 2015 года. Приквел и спин-офф серии мультфильмов «Гадкий я», повествующий о предыстории миньонов. Производство Illumination Entertainment
Релиз:

Сэмпл

IMDb: 6.60 (82 239)
Качество: BDRip 720p Minions 2015 1080p Blu-ray Remux AVC TrueHD Atmos 7.1 - KRaLiMaRKo
Формат: MKV
Видео: AVC 7453 Kbps 1280 x 692 (1.850) 23.976 fps
Аудио: AC-3 640 Kbps 6 channels, 48.0 KHz DUB Blu-ray СEE
Аудио 2: AC-3 640 Kbps 6 channels, 48.0 KHz DUB Blu-ray СEE Ukr
Аудио 3: AC-3 EX 640 Kbps 6 channels, 48.0 KHz Eng
Субтитры: SRT Rus, Ukr, Eng, Spa

MI | Log

Log
x264 [info]: frame I:1012 Avg QP:14.89 size:166885
x264 [info]: frame P:31589 Avg QP:15.49 size: 64421
x264 [info]: frame B:98260 Avg QP:17.97 size: 30621
x264 [info]: consecutive B-frames: 3.5% 5.5% 9.0% 21.6% 14.5% 38.0% 3.7% 1.7% 0.8% 0.7% 0.9%
x264 [info]: mb I I16..4: 13.4% 68.4% 18.2%
x264 [info]: mb P I16..4: 1.3% 22.6% 2.5% P16..4: 21.9% 25.7% 12.5% 2.1% 0.2% skip:11.1%
x264 [info]: mb B I16..4: 0.1% 5.1% 0.4% B16..8: 29.5% 23.7% 6.3% direct: 6.9% skip:27.9% L0:46.0% L1:39.0% BI:15.0%
x264 [info]: 8x8 transform intra:86.5% inter:57.5%
x264 [info]: direct mvs spatial:99.6% temporal:0.4%
x264 [info]: coded y,uvDC,uvAC intra: 95.5% 97.0% 91.8% inter: 35.9% 38.5% 19.4%
x264 [info]: i16 v,h,dc,p: 16% 8% 17% 59%
x264 [info]: i8 v,h,dc,ddl,ddr,vr,hd,vl,hu: 9% 9% 14% 9% 12% 11% 12% 11% 13%
x264 [info]: i4 v,h,dc,ddl,ddr,vr,hd,vl,hu: 27% 11% 5% 6% 12% 11% 11% 8% 9%
x264 [info]: i8c dc,h,v,p: 54% 17% 13% 17%
x264 [info]: Weighted P-Frames: Y:5.2% UV:3.5%
x264 [info]: ref P L0: 42.2% 10.6% 18.9% 7.5% 6.9% 4.2% 4.2% 2.4% 2.6% 0.4% 0.0%
x264 [info]: ref B L0: 62.3% 14.9% 8.3% 5.0% 3.6% 3.3% 1.9% 0.6%
x264 [info]: ref B L1: 90.4% 9.6%
x264 [info]: kb/s:7640.51
x264 [total]: encoded 130861 frames, 5.87 fps, 7640.51 kb/s, duration 6:11:20.05
Format : Matroska
Format version : Version 4 / Version 2
File size : 6.08 GiB
Duration : 1h 30mn
Overall bit rate : 9 563 Kbps
Encoded date : UTC 2015-11-21 12:04:57
Writing application : mkvmerge v6.7.0 ('Back to the Ground') 32bit built on Jan 8 2014 15:03:17
Writing library : libebml v1.3.0 + libmatroska v1.4.1
Video
ID : 1
Format : AVC
Format/Info : Advanced Video Codec
Format profile : High@L4.1
Format settings, CABAC : Yes
Format settings, ReFrames : 9 frames
Codec ID : V_MPEG4/ISO/AVC
Duration : 1h 30mn
Bit rate : 7 453 Kbps
Width : 1 280 pixels
Height : 692 pixels
Display aspect ratio : 1.85:1
Frame rate mode : Constant
Frame rate : 23.976 fps
Color space : YUV
Chroma subsampling : 4:2:0
Bit depth : 8 bits
Scan type : Progressive
Bits/(Pixel*Frame) : 0.351
Stream size : 4.74 GiB (78%)
Title : Minions (2015) [rutracker.org] 720p
Writing library : x264 core 148 r2579kMod 73ae2d1
Encoding settings : cabac=1 / ref=9 / deblock=1:-3:-2 / analyse=0x3:0x133 / me=umh / subme=11 / psy=1 / fade_compensate=0.00 / psy_rd=1.00:0.05 / mixed_ref=1 / me_range=32 / chroma_me=1 / trellis=2 / 8x8dct=1 / cqm=0 / deadzone=21,11 / fast_pskip=0 / chroma_qp_offset=-3 / threads=12 / lookahead_threads=3 / sliced_threads=0 / nr=0 / decimate=1 / interlaced=0 / bluray_compat=0 / constrained_intra=0 / fgo=0 / bframes=10 / b_pyramid=2 / b_adapt=2 / b_bias=0 / direct=3 / weightb=1 / open_gop=0 / weightp=2 / keyint=250 / keyint_min=23 / scenecut=40 / intra_refresh=0 / rc_lookahead=60 / rc=crf / mbtree=0 / crf=16.7000 / qcomp=0.60 / qpmin=0 / qpmax=69 / qpstep=4 / vbv_maxrate=50000 / vbv_bufsize=62500 / crf_max=0.0 / nal_hrd=none / filler=0 / ip_ratio=1.40 / pb_ratio=1.30 / aq=3:0.90
Language : English
Default : Yes
Forced : No
Audio #1
ID : 2
Format : AC-3
Format/Info : Audio Coding 3
Mode extension : CM (complete main)
Format settings, Endianness : Big
Codec ID : A_AC3
Duration : 1h 30mn
Bit rate mode : Constant
Bit rate : 640 Kbps
Channel(s) : 6 channels
Channel positions : Front: L C R, Side: L R, LFE
Sampling rate : 48.0 KHz
Compression mode : Lossy
Stream size : 416 MiB (7%)
Title : DUB Blu-ray CEE
Language : Russian
Default : Yes
Forced : No
Audio #2
ID : 3
Format : AC-3
Format/Info : Audio Coding 3
Mode extension : CM (complete main)
Format settings, Endianness : Big
Codec ID : A_AC3
Duration : 1h 30mn
Bit rate mode : Constant
Bit rate : 640 Kbps
Channel(s) : 6 channels
Channel positions : Front: L C R, Side: L R, LFE
Sampling rate : 48.0 KHz
Compression mode : Lossy
Stream size : 416 MiB (7%)
Title : DUB Blu-ray CEE
Language : Ukrainian
Default : No
Forced : No
Audio #3
ID : 4
Format : AC-3
Format/Info : Audio Coding 3
Mode extension : CM (complete main)
Format settings, Endianness : Big
Codec ID : A_AC3
Duration : 1h 30mn
Bit rate mode : Constant
Bit rate : 640 Kbps
Channel(s) : 6 channels
Channel positions : Front: L C R, Side: L R, LFE
Sampling rate : 48.0 KHz
Compression mode : Lossy
Stream size : 416 MiB (7%)
Title : Original
Language : English
Default : No
Forced : No
Text #1
ID : 5
Format : UTF-8
Codec ID : S_TEXT/UTF8
Codec ID/Info : UTF-8 Plain Text
Title : Full
Language : Russian
Default : No
Forced : No
Text #2
ID : 6
Format : UTF-8
Codec ID : S_TEXT/UTF8
Codec ID/Info : UTF-8 Plain Text
Title : Full
Language : Ukrainian
Default : No
Forced : No
Text #3
ID : 7
Format : UTF-8
Codec ID : S_TEXT/UTF8
Codec ID/Info : UTF-8 Plain Text
Title : Full
Language : Spanish
Default : No
Forced : No
Text #4
ID : 8
Format : UTF-8
Codec ID : S_TEXT/UTF8
Codec ID/Info : UTF-8 Plain Text
Title : SDH
Language : English
Default : No
Forced : No
Menu
00:00:00.000 : en:00:00:00.000
00:05:39.839 : en:00:05:39.839
00:11:28.938 : en:00:11:28.938
00:16:55.139 : en:00:16:55.139
00:22:28.430 : en:00:22:28.430
00:26:59.034 : en:00:26:59.034
00:32:54.639 : en:00:32:54.639
00:37:28.872 : en:00:37:28.872
00:40:58.831 : en:00:40:58.831
00:45:29.310 : en:00:45:29.310
00:49:24.086 : en:00:49:24.086
00:53:43.053 : en:00:53:43.053
00:57:04.921 : en:00:57:04.921
01:01:36.943 : en:01:01:36.943
01:05:54.701 : en:01:05:54.701
01:07:55.238 : en:01:07:55.238
01:11:19.150 : en:01:11:19.150
01:15:32.653 : en:01:15:32.653
01:21:12.826 : en:01:21:12.826
01:28:24.758 : en:01:28:24.758

Скриншоты






_________________
Показать сообщения:    

Текущее время: Сегодня 16:10

Часовой пояс: GMT



Вы не можете начинать темы
Вы не можете отвечать на сообщения
Вы не можете редактировать свои сообщения
Вы не можете удалять свои сообщения
Вы не можете голосовать в опросах
Вы не можете прикреплять файлы к сообщениям
Вы не можете скачивать файлы
Наши партнеры: интернет магазин Ивановского трикотажа textilla.ru