Ивановский Торрент трекер
Яндекс.Погода
 

[Цитировать]
HUNTER

Миньоны / Minions
Страна: США
Жанр: Мультфильм, комедия, семейный
Год выпуска: 2015
Продолжительность: 01:30:58
Перевод: Профессиональный (дублированный) iTunes Russia
Cубтитры: английские
Оригинальная аудиодорожка: английский-Режиссер: Кайл Балда / Kyle Balda, Пьер Коффан / Pierre Coffin-В ролях: Сандра Буллок, Джон Хэмм, Майкл Китон, Эллисон Дженни, Стив Куган, Дженнифер Сондерс, Джеффри Раш, Стив Карелл, Пьер Коффан, Кэти Миксон-Описание: Миньоны живут на планете гораздо дольше нас. У них одна навязчивая идея - служить самой Гадкой личности из имеющихся в наличии. Динозавры, фараоны, Дракула, Наполеон - все они оказались недолговечны. И тогда миньоны рванули в Нью-Йорк. Их ждут деньги, власть, роковая суперзлодейка Скарлет Оверкилл и, конечно же, вкуснейшая «банана»! Во всяком случае, так им кажется.-Релиз:
-Сэмпл: http://sendfile.su/1166757-Качество видео: BDRip
Формат видео: MKV
Видео: MPEG-4 AVC / 5579 kbps / 720p / 23,976 fps / 1.85:1 / High Profile 4.1 [HDA]
Аудио: Russian: 48 kHz, AC3, 3/2 (L,C,R,l,r) + LFE ch, ~384.00 kbps avg (iTunes)
Аудио: English: 48 kHz, AC3, 3/2 (L,C,R,l,r) + LFE ch, ~ 640 kbps-

MediaInfo

Format                                   : Matroska
Format version                           : Version 4 / Version 2
File size                                : 4.28 GiB
Duration                                 : 1h 30mn
Overall bit rate                         : 6 737 Kbps
Movie name                               : Minions_2015_BDRIP_720P_HDA
Encoded date                             : UTC 2015-10-21 01:53:15
Writing application                      : mkvmerge v8.5.0 ('Vanishing Act') 32bit
Writing library                          : libebml v1.3.1 + libmatroska v1.4.2
DURATION                                 : 01:30:48.817000000
NUMBER_OF_FRAMES                         : 1686
NUMBER_OF_BYTES                          : 41278
_STATISTICS_WRITING_APP                  : mkvmerge v8.5.0 ('Vanishing Act') 32bit
_STATISTICS_WRITING_DATE_UTC             : 2015-10-21 01:53:15
_STATISTICS_TAGS                         : BPS DURATION NUMBER_OF_FRAMES NUMBER_OF_BYTES
Video
ID                                       : 1
Format                                   : AVC
Format/Info                              : Advanced Video Codec
Format profile                           : High@L4.1
Format settings, CABAC                   : Yes
Format settings, ReFrames                : 9 frames
Codec ID                                 : V_MPEG4/ISO/AVC
Duration                                 : 1h 30mn
Bit rate                                 : 5 579 Kbps
Width                                    : 1 280 pixels
Height                                   : 690 pixels
Display aspect ratio                     : 1.855
Frame rate                               : 23.976 fps
Color space                              : YUV
Chroma subsampling                       : 4:2:0
Bit depth                                : 8 bits
Scan type                                : Progressive
Bits/(Pixel*Frame)                       : 0.263
Stream size                              : 3.54 GiB (83%)
Title                                    : MINIONS_2015_BDRIP_720p_BLUEBIRD_EPIC
Writing library                          : x264 core 142 r2409+42 04be48a tMod [8-bit@all X86_64]
Encoding settings                        : cabac=1 / ref=9 / deblock=1:-1:-1 / analyse=0x3:0x133 / me=umh / subme=11 / psy=1 / fade_compensate=0.00 / psy_rd=0.40:0.00 / mixed_ref=1 / me_range=32 / chroma_me=1 / trellis=2 / 8x8dct=1 / cqm=0 / deadzone=21,11 / fast_pskip=0 / chroma_qp_offset=-2 / threads=24 / lookahead_threads=4 / sliced_threads=0 / nr=0 / decimate=0 / interlaced=0 / bluray_compat=0 / constrained_intra=0 / fgo=0 / bframes=8 / b_pyramid=2 / b_adapt=2 / b_bias=0 / direct=3 / weightb=1 / open_gop=0 / weightp=2 / keyint=240 / keyint_min=23 / scenecut=40 / intra_refresh=0 / rc_lookahead=60 / rc=crf / mbtree=0 / crf=15.5000 / qcomp=0.60 / qpmin=0:0:0 / qpmax=69:69:69 / qpstep=4 / vbv_maxrate=40000 / vbv_bufsize=30000 / crf_max=0.0 / nal_hrd=none / filler=0 / ip_ratio=1.40 / pb_ratio=1.30 / aq=1:0.60 / aq-sensitivity=10.00 / aq-factor=1.00:1.00:1.00 / aq2=0 / aq3=0
Language                                 : English
Default                                  : Yes
Forced                                   : No
Audio #1
ID                                       : 2
Format                                   : AC-3
Format/Info                              : Audio Coding 3
Mode extension                           : CM (complete main)
Codec ID                                 : A_AC3
Duration                                 : 1h 30mn
Bit rate mode                            : Constant
Bit rate                                 : 384 Kbps
Channel(s)                               : 6 channels
Channel positions                        : Front: L C R, Side: L R, LFE
Sampling rate                            : 48.0 KHz
Bit depth                                : 16 bits
Compression mode                         : Lossy
Delay relative to video                  : 24ms
Stream size                              : 250 MiB (6%)
Title                                    : iTunes
Language                                 : Russian
Default                                  : Yes
Forced                                   : No
Audio #2
ID                                       : 3
Format                                   : AC-3
Format/Info                              : Audio Coding 3
Mode extension                           : CM (complete main)
Codec ID                                 : A_AC3
Duration                                 : 1h 30mn
Bit rate mode                            : Constant
Bit rate                                 : 640 Kbps
Channel(s)                               : 6 channels
Channel positions                        : Front: L C R, Side: L R, LFE
Sampling rate                            : 48.0 KHz
Bit depth                                : 16 bits
Compression mode                         : Lossy
Stream size                              : 416 MiB (9%)
Title                                    : English DD5.1 @640 Kbps
Language                                 : English
Default                                  : No
Forced                                   : No
Text
ID                                       : 4
Format                                   : UTF-8
Codec ID                                 : S_TEXT/UTF8
Codec ID/Info                            : UTF-8 Plain Text
Title                                    : SHD
Language                                 : English
Default                                  : Yes
Forced                                   : No
Menu
00:00:00.000                             : en:Chapter 01
00:05:39.839                             : en:Chapter 02
00:11:28.938                             : en:Chapter 03
00:16:55.139                             : en:Chapter 04
00:22:28.430                             : en:Chapter 05
00:26:59.034                             : en:Chapter 06
00:32:54.639                             : en:Chapter 07
00:37:28.871                             : en:Chapter 08
00:40:58.831                             : en:Chapter 09
00:45:29.309                             : en:Chapter 10
00:49:24.086                             : en:Chapter 11
00:53:43.053                             : en:Chapter 12
00:57:04.921                             : en:Chapter 13
01:01:36.943                             : en:Chapter 14
01:05:54.700                             : en:Chapter 15
01:07:55.237                             : en:Chapter 16
01:11:19.149                             : en:Chapter 17
01:15:32.653                             : en:Chapter 18
01:21:12.826                             : en:Chapter 19
01:28:24.757                             : en:Chapter 20
01:30:57.743                             : en:Chapter 21

Скриншоты



Показать сообщения:    

Текущее время: 16-Дек 18:44

Часовой пояс: UTC ± 0


Вы не можете начинать темы
Вы не можете отвечать на сообщения
Вы не можете редактировать свои сообщения
Вы не можете удалять свои сообщения
Вы не можете голосовать в опросах
Вы не можете прикреплять файлы к сообщениям
Вы не можете скачивать файлы

!ВНИМАНИЕ!
Сайт не предоставляет электронные версии произведений, а занимается лишь коллекционированием и каталогизацией ссылок, присылаемых и публикуемых на форуме нашими читателями. Если вы являетесь правообладателем какого-либо представленного материала и не желаете, чтобы ссылка на него находилась в нашем каталоге, свяжитесь с нами, и мы незамедлительно удалим ее. Файлы для обмена на трекере предоставлены пользователями сайта, и администрация не несет ответственности за их содержание. Просьба не заливать файлы, защищенные авторскими правами, а также файлы нелегального содержания!