Важное объявление!
У Нас Все раздачи мультитрекерные, при нуле пиров в релизах, можете смело вставать на закачку!
Статистика раздачи
Размер:     |    Зарегистрирован:     |    Скачан:     |   
Нет
 
     
 
 
Автор Сообщение

HUNTER

Стаж:
5 лет 1 месяц
Сообщений:
68439

Репутация: 101

[+] [-]
Вне форума [Профиль] [ЛС]

Миньоны / Minions«Ой, всё»____________________________________________________________________________________________
Страна: США
Студия: Illumination Entertainment
Жанр: Мультфильм, комедия, семейный
Год выпуска: 2015
Продолжительность: 01:30:53
Перевод: Профессиональный (дублированный) |iTunes Russia|
Оригинальная аудиодорожка: нет
Cубтитры: нет
Режиссер: Кайл Балда / Kyle Balda, Пьер Коффан / Pierre Coffin
В ролях: Сандра Буллок, Джон Хэмм, Майкл Китон, Эллисон Дженни, Стив Куган, Дженнифер Сондерс, Джеффри Раш, Стив Карелл, Пьер Коффан, Кэти Миксон
Описание: Миньоны живут на планете гораздо дольше нас. У них одна навязчивая идея – служить самой Гадкой личности из имеющихся в наличии. Динозавры, фараоны, Дракула, Наполеон – все они оказались недолговечны. И тогда миньоны рванули в Нью-Йорк. Их ждут деньги, власть, роковая суперзлодейка Скарлет Оверкилл и, конечно же, вкуснейшая “банана”! Во всяком случае, так им кажется.
____________________________________________________________________________________________

Релиз:
Тип релиза: WEB-DL 720p
Контейнер: MKV
Видео: 1280x688 at 23.976 fps, MPEG-4 AVC, ~4000 kbps avg
Аудио: Russian: 48 kHz, AC3, 3/2 (L,C,R,l,r) + LFE ch, ~384.00 kbps avg |Дубляж, iTunes Russia|
Субтитры: None
Цитата:
Цитата:

  • Сохранены оригинальные главы.
  • Исходный WEB-DL куплен в рамках сервиса "Копилка".

Скриншоты


MediaInfo

General
Unique ID : 209140212240588963219395332820613669266 (0x9D56F09256F0985AB028128C07272192)
Complete name : D:\Minions.2015.720p.WEB-DL.Rus.HDCLUB.mkv
Format : Matroska
Format version : Version 2
File size : 2.81 GiB
Duration : 1h 30mn
Overall bit rate : 4 431 Kbps
Movie name : Minions (2015) - Release for HDCLUB
Encoded date : UTC 2015-10-07 20:58:09
Writing application : mkvmerge v3.4.0 ('Rapunzel') built on May 15 2010 09:38:20
Writing library : libebml v0.8.0 + libmatroska v0.9.0
Video
ID : 1
Format : AVC
Format/Info : Advanced Video Codec
Format profile : High@L3.1
Format settings, CABAC : No
Format settings, ReFrames : 2 frames
Codec ID : V_MPEG4/ISO/AVC
Duration : 1h 30mn
Bit rate : 3 959 Kbps
Width : 1 280 pixels
Height : 688 pixels
Display aspect ratio : 1.85:1
Frame rate mode : Constant
Frame rate : 23.976 fps
Color space : YUV
Chroma subsampling : 4:2:0
Bit depth : 8 bits
Scan type : Progressive
Bits/(Pixel*Frame) : 0.188
Stream size : 2.51 GiB (89%)
Title : Minions (2015) - Release for HDCLUB
Language : English
Default : Yes
Forced : No
Color range : Limited
Color primaries : BT.709
Transfer characteristics : BT.709
Matrix coefficients : BT.709
Audio
ID : 2
Format : AC-3
Format/Info : Audio Coding 3
Mode extension : CM (complete main)
Format settings, Endianness : Big
Codec ID : A_AC3
Duration : 1h 30mn
Bit rate mode : Constant
Bit rate : 384 Kbps
Channel(s) : 6 channels
Channel positions : Front: L C R, Side: L R, LFE
Sampling rate : 48.0 KHz
Compression mode : Lossy
Stream size : 250 MiB (9%)
Title : AC3 5.1 @ 384 kbps - DUB, iTunes
Language : Russian
Default : Yes
Forced : No
Menu
00:00:00.000 : en:1
00:05:41.000 : en:2
00:11:34.000 : en:3
00:16:57.000 : en:4
00:22:30.000 : en:5
00:27:00.000 : en:6
00:32:56.000 : en:7
00:37:30.000 : en:8
00:41:00.000 : en:9
00:45:31.000 : en:10
00:49:25.000 : en:11
00:53:45.000 : en:12
00:57:06.000 : en:13
01:01:38.000 : en:14
01:05:56.000 : en:15
01:07:57.000 : en:16
01:11:19.000 : en:17
01:15:34.000 : en:18
01:21:14.000 : en:19
01:28:26.000 : en:20

_________________
Показать сообщения:    

Текущее время: Сегодня 11:41

Часовой пояс: GMT



Вы не можете начинать темы
Вы не можете отвечать на сообщения
Вы не можете редактировать свои сообщения
Вы не можете удалять свои сообщения
Вы не можете голосовать в опросах
Вы не можете прикреплять файлы к сообщениям
Вы не можете скачивать файлы