Ивановский Торрент трекер
Яндекс.Погода
 

[Цитировать]
HUNTER

Миньоны / Minions
Страна: США
Жанр: Мультипликация
Продолжительность: 01:30:53
Год выпуска: 2015
Перевод: Профессиональный (дублированный)
Русские субтитры: нет-Режиссёр: Кайл Балда / Kyle Balda, Пьер Коффан / Pierre Coffin
Роли озвучивали: Сандра Буллок, Джон Хэмм, Майкл Китон, Эллисон Дженни, Стив Куган, Дженнифер Сондерс, Джеффри Раш, Стив Карелл, Пьер Коффан, Кэти Миксон-Описание: Миньоны живут на планете на пару миллионов лет дольше нас. У них одна навязчивая идея - служить самой Гадкой личности из имеющихся в наличии. Динозавры, фараоны, Дракула, Наполеон - все они оказались недолговечны. И тогда миньоны рванули в Нью-Йорк. Их ждут деньги, власть, роковая суперзлодейка Скарлет Оверкилл и, конечно же, вкуснейшая «банана»! Во всяком случае, так им кажется.-Качество: WEB-DL 1080p
Формат: MKV
Видео: AVC, 1916x1032 (1.857), 23.976 fps, 4 880 Kbps (0.103 bit/pixel)
Аудио: AC-3, 48.0 KHz, 6 ch, 384 Kbps, CBR (Russian) [iTunes]
Субтитры: отсутствуют
Семпл: Забираем тут

Подробные технические данные

GeneralUnique ID : 173204948349145323863413466929443109422 (0x824E0F457ED58C6C984C0D21F6CFFA2E)Complete name : Minions 2015 WEB-DL 1080p.mkvFormat : MatroskaFormat version : Version 4 / Version 2File size : 3.41 GiBDuration : 1h 30mnOverall bit rate : 5 371 KbpsEncoded date : UTC 2015-10-10 08:28:25Writing application : mkvmerge v8.3.0 ('Over the Horizon') 64bitWriting library : libebml v1.3.1 + libmatroska v1.4.2DURATION : 01:30:53.088000000NUMBER_OF_FRAMES : 170409NUMBER_OF_BYTES : 261748224_STATISTICS_WRITING_APP : mkvmerge v8.3.0 ('Over the Horizon') 64bit_STATISTICS_WRITING_DATE_UT : 2015-10-10 08:28:25_STATISTICS_TAGS : BPS DURATION NUMBER_OF_FRAMES NUMBER_OF_BYTES
VideoID : 1Format : AVCFormat/Info : Advanced Video CodecFormat profile : High@L4Format settings, CABAC : YesFormat settings, ReFrames : 4 framesCodec ID : V_MPEG4/ISO/AVCDuration : 1h 30mnBit rate : 4 880 KbpsWidth : 1 916 pixelsHeight : 1 032 pixelsDisplay aspect ratio : 1.85:1Frame rate mode : ConstantFrame rate : 23.976 fpsColor space : YUVChroma subsampling : 4:2:0Bit depth : 8 bitsScan type : ProgressiveBits/(Pixel*Frame) : 0.103Stream size : 3.10 GiB (91%)Language : EnglishDefault : YesForced : NoColor range : LimitedColor primaries : BT.709Transfer characteristics : BT.709Matrix coefficients : BT.709
AudioID : 2Format : AC-3Format/Info : Audio Coding 3Mode extension : CM (complete main)Format settings, Endianness : BigCodec ID : A_AC3Duration : 1h 30mnBit rate mode : ConstantBit rate : 384 KbpsChannel(s) : 6 channelsChannel positions : Front: L C R, Side: L R, LFESampling rate : 48.0 KHzCompression mode : LossyStream size : 250 MiB (7%)Language : RussianDefault : YesForced : No
Menu00:00:00.000 : en:глава 100:05:41.000 : en:глава 200:11:34.000 : en:глава 300:16:57.000 : en:глава 400:22:30.000 : en:глава 500:27:00.000 : en:глава 600:32:56.000 : en:глава 700:37:30.000 : en:глава 800:41:00.000 : en:глава 900:45:31.000 : en:глава 1000:49:25.000 : en:глава 1100:53:45.000 : en:глава 1200:57:06.000 : en:глава 1301:01:38.000 : en:глава 1401:05:56.000 : en:глава 1501:07:57.000 : en:глава 1601:11:19.000 : en:глава 1701:15:34.000 : en:глава 1801:21:14.000 : en:глава 1901:28:26.000 : en:глава 20

Скриншоты




Показать сообщения:    

Текущее время: 12-Дек 16:29

Часовой пояс: UTC ± 0


Вы не можете начинать темы
Вы не можете отвечать на сообщения
Вы не можете редактировать свои сообщения
Вы не можете удалять свои сообщения
Вы не можете голосовать в опросах
Вы не можете прикреплять файлы к сообщениям
Вы не можете скачивать файлы

!ВНИМАНИЕ!
Сайт не предоставляет электронные версии произведений, а занимается лишь коллекционированием и каталогизацией ссылок, присылаемых и публикуемых на форуме нашими читателями. Если вы являетесь правообладателем какого-либо представленного материала и не желаете, чтобы ссылка на него находилась в нашем каталоге, свяжитесь с нами, и мы незамедлительно удалим ее. Файлы для обмена на трекере предоставлены пользователями сайта, и администрация не несет ответственности за их содержание. Просьба не заливать файлы, защищенные авторскими правами, а также файлы нелегального содержания!