Важное объявление!
У Нас Все раздачи мультитрекерные, при нуле пиров в релизах, можете смело вставать на закачку!
Статистика раздачи
Размер:     |    Зарегистрирован:     |    Скачан:     |   
Нет
 
     
 
 
Автор Сообщение

HUNTER

Стаж:
5 лет
Сообщений:
67958

Репутация: 101

[+] [-]
Вне форума [Профиль] [ЛС]

Миньоны | Minions
«Ой, всё»
-
Страна: США | Illumination Entertainment
Жанр: комедия, семейный
Продолжительность: 01:30:58
Год выпуска: 2015
Перевод: Профессиональный (дублированный) iTunes
Русские субтитры: нет
Режиссёр: Кайл Балда / Kyle Balda, Пьер Коффан / Pierre Coffin
Роли озвучивали: Сандра Буллок, Джон Хэмм, Майкл Китон, Эллисон Дженни, Стив Куган, Дженнифер Сондерс, Джеффри Раш, Стив Карелл, Пьер Соффин, Кэти Миксон-ОписаниеМиньоны живут на планете гораздо дольше нас. У них одна навязчивая идея — служить самой Гадкой личности из имеющихся в наличии. Динозавры, фараоны, Дракула, Наполеон — все они оказались недолговечны. И тогда миньоны рванули в Нью-Йорк. Их ждут деньги, власть, роковая суперзлодейка Скарлет Оверкилл и, конечно же, вкуснейшая «банана»! Во всяком случае, так им кажется.-
Сэмпл

IMDb: 6.60 (82 239)
Качество: BDRip-AVC Minions 2015 1080p Blu-ray Remux AVC TrueHD Atmos 7.1 - KRaLiMaRKo
Формат: MKV
Видео: AVC 4383 Kbps 1136 x 614 (1.850) 23.976 fps
Аудио: AC-3 384 Kbps 6 channels, 48.0 KHz DUB iTunes
Аудио 2: AC-3 448 Kbps 6 channels, 48.0 KHz Eng
Субтитры: SRT Eng, Spa

MI | Log

Log
x264 [info]: frame I:994 Avg QP:16.01 size:119834
x264 [info]: frame P:29930 Avg QP:17.35 size: 42319
x264 [info]: frame B:99937 Avg QP:19.40 size: 16763
x264 [info]: consecutive B-frames: 2.5% 3.0% 11.5% 22.6% 15.6% 36.1% 3.6% 1.7% 0.8% 0.6% 0.6% 0.8% 0.6%
x264 [info]: mb I I16..4: 10.2% 70.7% 19.0%
x264 [info]: mb P I16..4: 0.8% 16.9% 2.1% P16..4: 25.5% 29.7% 13.1% 2.0% 0.2% skip: 9.7%
x264 [info]: mb B I16..4: 0.1% 2.5% 0.3% B16..8: 31.0% 21.5% 5.0% direct: 5.6% skip:34.1% L0:46.1% L1:41.2% BI:12.7%
x264 [info]: 8x8 transform intra:84.4% inter:59.8%
x264 [info]: direct mvs spatial:99.9% temporal:0.1%
x264 [info]: coded y,uvDC,uvAC intra: 94.8% 94.9% 85.8% inter: 28.8% 30.0% 13.2%
x264 [info]: i16 v,h,dc,p: 17% 14% 9% 60%
x264 [info]: i8 v,h,dc,ddl,ddr,vr,hd,vl,hu: 10% 9% 10% 9% 13% 12% 13% 11% 13%
x264 [info]: i4 v,h,dc,ddl,ddr,vr,hd,vl,hu: 13% 12% 3% 8% 15% 13% 14% 10% 12%
x264 [info]: i8c dc,h,v,p: 46% 20% 15% 19%
x264 [info]: Weighted P-Frames: Y:5.5% UV:3.7%
x264 [info]: ref P L0: 42.4% 10.6% 17.8% 6.6% 6.2% 4.5% 4.0% 2.1% 2.1% 1.6% 1.8% 0.3% 0.0%
x264 [info]: ref B L0: 61.8% 13.8% 7.7% 4.6% 3.5% 3.2% 2.3% 1.7% 1.0% 0.4%
x264 [info]: ref B L1: 90.4% 9.6%
x264 [info]: kb/s:4486.60
x264 [total]: encoded 130861 frames, 7.60 fps, 4486.60 kb/s, duration 4:47:03.58
Format : Matroska
Format version : Version 4 / Version 2
File size : 3.38 GiB
Duration : 1h 30mn
Overall bit rate : 5 320 Kbps
Encoded date : UTC 2015-10-23 11:02:09
Writing application : mkvmerge v6.7.0 ('Back to the Ground') 32bit built on Jan 8 2014 15:03:17
Writing library : libebml v1.3.0 + libmatroska v1.4.1
Video
ID : 1
Format : AVC
Format/Info : Advanced Video Codec
Format profile : High@L4.1
Format settings, CABAC : Yes
Format settings, ReFrames : 11 frames
Codec ID : V_MPEG4/ISO/AVC
Duration : 1h 30mn
Bit rate : 4 383 Kbps
Width : 1 136 pixels
Height : 614 pixels
Display aspect ratio : 1.85:1
Frame rate mode : Constant
Frame rate : 23.976 fps
Color space : YUV
Chroma subsampling : 4:2:0
Bit depth : 8 bits
Scan type : Progressive
Bits/(Pixel*Frame) : 0.262
Stream size : 2.78 GiB (82%)
Title : Minions (2015 [rutracker.org]
Writing library : x264 core 148 r2579kMod 73ae2d1
Encoding settings : cabac=1 / ref=11 / deblock=1:-2:-1 / analyse=0x3:0x133 / me=umh / subme=11 / psy=1 / fade_compensate=0.00 / psy_rd=1.00:0.05 / mixed_ref=1 / me_range=32 / chroma_me=1 / trellis=2 / 8x8dct=1 / cqm=0 / deadzone=21,11 / fast_pskip=0 / chroma_qp_offset=-3 / threads=12 / lookahead_threads=3 / sliced_threads=0 / nr=0 / decimate=1 / interlaced=0 / bluray_compat=0 / constrained_intra=0 / fgo=0 / bframes=12 / b_pyramid=2 / b_adapt=2 / b_bias=0 / direct=3 / weightb=1 / open_gop=0 / weightp=2 / keyint=250 / keyint_min=23 / scenecut=40 / intra_refresh=0 / rc_lookahead=80 / rc=crf / mbtree=0 / crf=17.5000 / qcomp=0.60 / qpmin=0 / qpmax=69 / qpstep=4 / vbv_maxrate=50000 / vbv_bufsize=62500 / crf_max=0.0 / nal_hrd=none / filler=0 / ip_ratio=1.40 / pb_ratio=1.30 / aq=3:0.90
Language : English
Default : Yes
Forced : No
Audio #1
ID : 2
Format : AC-3
Format/Info : Audio Coding 3
Mode extension : CM (complete main)
Format settings, Endianness : Big
Codec ID : A_AC3
Duration : 1h 30mn
Bit rate mode : Constant
Bit rate : 384 Kbps
Channel(s) : 6 channels
Channel positions : Front: L C R, Side: L R, LFE
Sampling rate : 48.0 KHz
Compression mode : Lossy
Delay relative to video : 24ms
Stream size : 250 MiB (7%)
Title : DUB [iTunes]
Language : Russian
Default : Yes
Forced : No
Audio #2
ID : 3
Format : AC-3
Format/Info : Audio Coding 3
Mode extension : CM (complete main)
Format settings, Endianness : Big
Codec ID : A_AC3
Duration : 1h 30mn
Bit rate mode : Constant
Bit rate : 448 Kbps
Channel(s) : 6 channels
Channel positions : Front: L C R, Side: L R, LFE
Sampling rate : 48.0 KHz
Compression mode : Lossy
Stream size : 291 MiB (8%)
Title : Original
Language : English
Default : No
Forced : No
Text #1
ID : 4
Format : UTF-8
Codec ID : S_TEXT/UTF8
Codec ID/Info : UTF-8 Plain Text
Title : SDH
Language : English
Default : No
Forced : No
Text #2
ID : 5
Format : UTF-8
Codec ID : S_TEXT/UTF8
Codec ID/Info : UTF-8 Plain Text
Title : Full
Language : Spanish
Default : No
Forced : No
Menu
00:00:00.000 : en:00:00:00.000
00:05:39.839 : en:00:05:39.839
00:11:28.938 : en:00:11:28.938
00:16:55.139 : en:00:16:55.139
00:22:28.430 : en:00:22:28.430
00:26:59.034 : en:00:26:59.034
00:32:54.639 : en:00:32:54.639
00:37:28.872 : en:00:37:28.872
00:40:58.831 : en:00:40:58.831
00:45:29.310 : en:00:45:29.310
00:49:24.086 : en:00:49:24.086
00:53:43.053 : en:00:53:43.053
00:57:04.921 : en:00:57:04.921
01:01:36.943 : en:01:01:36.943
01:05:54.701 : en:01:05:54.701
01:07:55.238 : en:01:07:55.238
01:11:19.150 : en:01:11:19.150
01:15:32.653 : en:01:15:32.653
01:21:12.826 : en:01:21:12.826
01:28:24.758 : en:01:28:24.758[/pre]

Скриншоты





_________________
Показать сообщения:    

Текущее время: Сегодня 04:48

Часовой пояс: GMT



Вы не можете начинать темы
Вы не можете отвечать на сообщения
Вы не можете редактировать свои сообщения
Вы не можете удалять свои сообщения
Вы не можете голосовать в опросах
Вы не можете прикреплять файлы к сообщениям
Вы не можете скачивать файлы