Ивановский Торрент трекер
Яндекс.Погода
 

[Цитировать]
HUNTER


Миньоны / Minions«Ой, всё»- Год выхода: 2015
Страна: США
Жанр: Мультфильм, комедия, семейный
Продолжительность: 01:23:52
Перевод: Профессиональный (полное дублирование)
Субтитры: Отсутствуют
Режиссер: Кайл Балда, Пьер Соффин
В ролях: Майкл Китон, Сандра Баллок, Кэти Миксон, Джон Хэмм, Хироюки Санада, Дженнифер Сондерс, Пьер Соффин, Крис Рено, Дэйв Розенбаум, Патрик Брэдфорд
О фильме: Миньоны живут на планете на пару миллионов лет дольше нас. У них одна навязчивая идея – служить самой Гадкой личности из имеющихся в наличии. Найти-то хозяина просто, а вот сохранить его весьма проблематично. Динозавры, фараоны, Дракула, Наполеон – все они оказались недолговечны. А без повелителя миньоны впадают в глубокую депрессию. Дабы избежать вымирания, они отправляются в мировое турне на поиски нового хозяина.
Качество: CAMRip
Формат: avi
Видео кодек: XviD
Аудио кодек: AC3
Видео: 720x352, 29.970 fps, 1962 Кбит/с
Аудио #1: 256 kb/s, 2 ch, 48.0 KHz [Russian]
Аудио #2: 256 kb/s, 2 ch, 48.0 KHz [English]

MediaInfo

Код: copyText_writeLink('this.parentNode.parentNode.nextSibling.nextSibling'); H:\USD\Minony.2015.CAMRip.1400Mb.avi
General
Complete name : H:\USD\Minony.2015.CAMRip.1400Mb.avi
Format : AVI
Format/Info : Audio Video Interleave
File size : 1.46 GiB
Duration : 1h 23mn
Overall bit rate : 2 493 Kbps
Movie name : Miniony.2015.D.CAMRip.ELEKTRI4KA.uniongang.tv
Director : Carl Gaus
Writing application : VirtualDubMod 1.5.10.3 | http://www.virtualdub-fr.org || (build 2550/release)
Copyright : UNIONGANG&RUSTORRENTS
Video #0
ID : 0
Format : MPEG-4 Visual
Format profile : Advanced Simple@L5
Format settings, BVOP : 2
Format settings, QPel : No
Format settings, GMC : No warppoints
Format settings, Matrix : Default (MPEG)
Muxing mode : Packed bitstream
Codec ID : XVID
Codec ID/Hint : XviD
Duration : 1h 23mn
Bit rate : 1 963 Kbps
Width : 720 pixels
Height : 352 pixels
Display aspect ratio : 2.045
Frame rate : 29.970 fps
Color space : YUV
Chroma subsampling : 4:2:0
Bit depth : 8 bits
Scan type : Progressive
Compression mode : Lossy
Bits/(Pixel*Frame) : 0.258
Stream size : 1.15 GiB (79%)
Writing library : XviD 1.2.1 (UTC 2008-12-04)
Audio #1
ID : 1
Format : AC-3
Format/Info : Audio Coding 3
Mode extension : CM (complete main)
Format settings, Endianness : Big
Codec ID : 2000
Duration : 1h 23mn
Bit rate mode : Constant
Bit rate : 256 Kbps
Channel count : 2 channels
Channel positions : Front: L R
Sampling rate : 48.0 KHz
Bit depth : 16 bits
Compression mode : Lossy
Stream size : 154 MiB (10%)
Alignment : Split accross interleaves
Interleave, duration : 33 ms (1.00 video frame)
Interleave, preload duration : 500 ms
Audio #2
ID : 2
Format : AC-3
Format/Info : Audio Coding 3
Mode extension : CM (complete main)
Format settings, Endianness : Big
Codec ID : 2000
Duration : 1h 23mn
Bit rate mode : Constant
Bit rate : 256 Kbps
Channel count : 2 channels
Channel positions : Front: L R
Sampling rate : 48.0 KHz
Bit depth : 16 bits
Compression mode : Lossy
Stream size : 154 MiB (10%)
Alignment : Split accross interleaves
Interleave, duration : 33 ms (1.00 video frame)
Interleave, preload duration : 500 ms

Рейтинг

Доп. информация

Сборы в мире: $141 700 000
Дата мировой премьеры: 17 июня 2015
Дата российской премьеры: 9 июля 2015, «UPI»

Скриншоты



Показать сообщения:    

Текущее время: 15-Дек 06:40

Часовой пояс: UTC ± 0


Вы не можете начинать темы
Вы не можете отвечать на сообщения
Вы не можете редактировать свои сообщения
Вы не можете удалять свои сообщения
Вы не можете голосовать в опросах
Вы не можете прикреплять файлы к сообщениям
Вы не можете скачивать файлы

!ВНИМАНИЕ!
Сайт не предоставляет электронные версии произведений, а занимается лишь коллекционированием и каталогизацией ссылок, присылаемых и публикуемых на форуме нашими читателями. Если вы являетесь правообладателем какого-либо представленного материала и не желаете, чтобы ссылка на него находилась в нашем каталоге, свяжитесь с нами, и мы незамедлительно удалим ее. Файлы для обмена на трекере предоставлены пользователями сайта, и администрация не несет ответственности за их содержание. Просьба не заливать файлы, защищенные авторскими правами, а также файлы нелегального содержания!