Важное объявление!
У Нас Все раздачи мультитрекерные, при нуле пиров в релизах, можете смело вставать на закачку!
 
Автор Сообщение

HUNTER

Стаж:
4 года 10 месяцев
Сообщений:
65557

Репутация: 101

[+] [-]
Вне форума [Профиль] [ЛС]

Мина начинает тикать / Landmine Goes Click«The only thing keeping it from exploding is your friend standing on it»
Страна: Грузия
Жанр: драма, триллер
Год выпуска: 2015
Продолжительность: 01:40:20
-
Перевод: Любительский (двухголосый закадровый) Parovoz Production
Cубтитры: английские [Full, SDH]
Оригинальная аудиодорожка: английский, грузинский, русский
-
Режиссер: Леван Бакия / Levan Bakhia
В ролях: Стерлинг Найт, Спенсер Лок, Дин Гейер, Коте Толордава, Джиорджи Цаава, Елена Безарашвили, Нана Кикнадзе, Ника Априашвили
-
Описание: Во время похода со своими друзьями Крис наступает на мину и не может сойти с нее, поскольку тогда она взорвется. В сложившейся ситуации он решает признаться своему лучшему другу, что у него роман с его невестой...
[img]https://rating.kinopoisk.ru/689383.gif[/img]
Тип релиза: BDRemux 1080i
Контейнер: MKV
Видео: MPEG-4 AVC / PAL 16:9 / 1920x1080 (2,40:1) / 11992 kbps / 25,000 fps / 0.231 bit/pixel / High@L4.1
Аудио 1: Russian / Dolby Digital Audio / 2.0 Ch / 48 kHz / 192 kbps / 16 bit / DVO / Parovoz Production
Аудио 2: Multi / English | Georgian | Russian / Dolby Digital Audio / 5.1 Ch / 48 kHz / 448 kbps / 16 bit / Original
Формат субтитров: softsub (SRT)
Навигация по главам: есть

MediaInfo

Код:
Общее
Уникальный идентификатор                 : 228474894495429860637284530755322763077 (0xABE2AA0178960B01AD05AFC13103D745)
Полное имя                               : N:\BDRemux 1080i\Landmine Goes Click.2015.BDRemux.1080i.mkv
Формат                                   : Matroska
Версия формата                           : Version 4 / Version 2
Размер файла                             : 8,77 Гбайт
Продолжительность                        : 1 ч. 40 м.
Режим общего битрейта                    : Переменный
Общий поток                              : 12,5 Мбит/сек
Название фильма                          : Release for RuTracker © flaSI-I
Дата кодирования                         : UTC 2016-09-04 15:00:03
Программа кодирования                    : mkvmerge v9.4.0 ('Knurl') 64bit
Библиотека кодирования                   : libebml v1.3.4 + libmatroska v1.4.5
Видео
Идентификатор                            : 1
Формат                                   : AVC
Формат/Информация                        : Advanced Video Codec
Профиль формата                          : High@L4.1
Параметр CABAC формата                   : Да
Параметр ReFrames формата                : 2 кадра
Идентификатор кодека                     : V_MPEG4/ISO/AVC
Продолжительность                        : 1 ч. 39 м.
Вид битрейта                             : Переменный
Битрейт                                  : 12,0 Мбит/сек
Максимальный битрейт                     : 35,2 Мбит/сек
Ширина                                   : 1920 пикселей
Высота                                   : 1080 пикселей
Соотношение сторон                       : 16:9
Режим частоты кадров                     : Постоянный
Частота кадров                           : 25,000 кадров/сек
Цветовое пространство                    : YUV
Субдискретизация насыщенности            : 4:2:0
Битовая глубина                          : 8 бит
Тип развёртки                            : MBAFF
Метод сохранения типа развёртки          : Чередующиеся поля
Порядок развёртки                        : Верхнее поле первое
Бит/(Пиксели*Кадры)                      : 0.231
Размер потока                            : 8,32 Гбайт (95%)
Язык                                     : Несколько языков
Default                                  : Да
Forced                                   : Нет
Аудио #1
Идентификатор                            : 2
Формат                                   : AC-3
Формат/Информация                        : Audio Coding 3
Расширение режима                        : CM (complete main)
Параметр Endianness формата              : Big
Идентификатор кодека                     : A_AC3
Продолжительность                        : 1 ч. 40 м.
Вид битрейта                             : Постоянный
Битрейт                                  : 192 Кбит/сек
Каналы                                   : 2 канала
Расположение каналов                     : Front: L R
Частота                                  : 48,0 КГц
Частота кадров                           : 31,250 кадров/сек (1536 spf)
Метод сжатия                             : С потерями
Размер потока                            : 138 Мбайт (2%)
Заголовок                                : DVO / Parovoz Production
Язык                                     : Russian
Default                                  : Да
Forced                                   : Нет
Аудио #2
Идентификатор                            : 3
Формат                                   : AC-3
Формат/Информация                        : Audio Coding 3
Расширение режима                        : CM (complete main)
Параметр Endianness формата              : Big
Идентификатор кодека                     : A_AC3
Продолжительность                        : 1 ч. 39 м.
Вид битрейта                             : Постоянный
Битрейт                                  : 448 Кбит/сек
Каналы                                   : 6 каналов
Расположение каналов                     : Front: L C R, Side: L R, LFE
Частота                                  : 48,0 КГц
Частота кадров                           : 31,250 кадров/сек (1536 spf)
Метод сжатия                             : С потерями
Размер потока                            : 318 Мбайт (4%)
Заголовок                                : Original / English | Georgian | Russian
Язык                                     : Несколько языков
Default                                  : Нет
Forced                                   : Нет
Текст #1
Идентификатор                            : 4
Формат                                   : UTF-8
Идентификатор кодека                     : S_TEXT/UTF8
Идентификатор кодека/Информация          : UTF-8 Plain Text
Продолжительность                        : 1 ч. 32 м.
Битрейт                                  : 68 бит/сек
Count of elements                        : 1708
Размер потока                            : 46,3 Кбайт (0%)
Заголовок                                : FULL
Язык                                     : English
Default                                  : Нет
Forced                                   : Нет
Текст #2
Идентификатор                            : 5
Формат                                   : UTF-8
Идентификатор кодека                     : S_TEXT/UTF8
Идентификатор кодека/Информация          : UTF-8 Plain Text
Продолжительность                        : 1 ч. 34 м.
Битрейт                                  : 73 бит/сек
Count of elements                        : 1819
Размер потока                            : 51,1 Кбайт (0%)
Заголовок                                : SDH
Язык                                     : English
Default                                  : Нет
Forced                                   : Нет
Меню
00:00:00.000                             : en:Chapter 1
00:15:22.080                             : en:Chapter 2
00:35:25.680                             : en:Chapter 3
00:55:26.000                             : en:Chapter 4
01:15:14.240                             : en:Chapter 5
01:36:39.400                             : en:Chapter 6

Скриншоты

-

_________________
Показать сообщения:    

Текущее время: Сегодня 18:02

Часовой пояс: GMT



Вы не можете начинать темы
Вы не можете отвечать на сообщения
Вы не можете редактировать свои сообщения
Вы не можете удалять свои сообщения
Вы не можете голосовать в опросах
Вы не можете прикреплять файлы к сообщениям
Вы не можете скачивать файлы