Важное объявление!
У Нас Все раздачи мультитрекерные, при нуле пиров в релизах, можете смело вставать на закачку!
 
Автор Сообщение

HUNTER

Стаж:
4 года 8 месяцев
Сообщений:
62060

Репутация: 101

[+] [-]
Вне форума [Профиль] [ЛС]

Миллион способов потерять голову / Миллион способов умереть на Диком Западе / A Million Ways to Die in the West / Unrated
-BDRemux-1080p | [url=viewtopic.php?t=5176096]BDRip-1080p[/url] | [url=viewtopic.php?t=5176905]BDRip-720p[/url] | [url=viewtopic.php?t=5177615]BDRip-AVC[/url] | [url=viewtopic.php?t=4843410]Audio[/url]-Страна: США
Жанр: комедия, вестерн
Год выпуска: 2014
Продолжительность: 02:14:44
Перевод 1: Профессиональный (дублированный) + DVO Студия "Paradox"
Перевод 2: Профессиональный (многоголосый закадровый) Filiza Studio + AVO Матвеев
Перевод 3: Одноголосый закадровый - Матвеев [Doctor Joker]
Оригинальная дорожка: Английский
Cубтитры: Русские (Forced, 2 x full), Английские (2 x full)
Режиссер: Сет МакФарлейн / Seth MacFarlane
В ролях: Сет МакФарлейн, Шарлиз Терон, Аманда Сайфред, Лиам Нисон, Джованни Рибизи, Нил Патрик Харрис, Сара Силверман, Кристофер Хэйген, Уэс Стьюди, Мэтт Кларк.
Описание: Угораздило же влюбиться не в том месте и не в то время. Здесь хамят в ресторанах, о горячей воде слагают легенды, да и с транспортом полный коллапс. Но у таинственной незнакомки отменная фигура, да и стреляет она без промаха. Кто же по своей воле откажется от такой красотки?
Доп. информация: UNRATED - Расширенная версия, длиннее театральной на ~19 минут! Полный перевод!
- Расширенные места в Дублированном переводе овучены студией "Paradox".
- Полный перевод MVO Filiza Studio сделал сам, путём склейки театральной и расширенной версий фильма. Был произведён небольшой "ремастеринг" звука, на расширенные места перевод Алексея Матвеева "Doctor Joker".
- Перевод А. Матвеева "Doctor Joker" доступен благодаря: Старый, GodFather, olddrinker, boldino, Roy33, save2x2, R.U., 7654, Shrooms, Lecter1975, Wa1ker, sancrew, napaHouk
- Дорожки с дублированным переводом и переводом Матвеева скачаны из сети
Сэмпл: https://www.sendspace.com/file/1jlvta
Тип релиза: BDRemux 1080p
Контейнер: MKV
Видео: MPEG-4 AVC/H.264 / 25237 kbps / 1920x1080 / 23.976 fps
Аудио 1: Rus / AC3 / 6 ch / 448 kbps / 48 kHz - DUB + DVO Paradox [вставки]
Аудио 2: Rus / AC3 / 2 ch / 192 kbps / 48 kHz - MVO Filiza Studio + VO Doctor Joker [вставки]
Аудио 3: Rus / DTS / 6 ch / 1510 kbps / 48 kHz - VO Doctor Joker
Аудио 4: Eng / DTS-HD Master Audio / 5.1 / 48 kHz / 3656 kbps / 24-bit (DTS Core: 5.1 / 48 kHz / 1509 kbps / 24-bit)
Аудио 5: Eng / AC3 / 2 ch / 192 kbps / 48 kHz - Commentary
Формат субтитров: softsub (SRT)
Доп. информация о субтитрах: Русские (Forced, 2 x full), Английские (2 x full)
#Сохранены оригинальные чаптеры как на Blu-ray

MediaInfo

General
Unique ID : 193714946796325904751439278546880397422 (0x91BC24448DAE0721B9B924E8489D806E)
Complete name : J:\Torrents\A.Million.Ways.to.Die.in.the.West.2014.Unrated.DUAL.BDRip.2,91Gb.XviD.AC3\Миллион способов потерять голову (2014) BDRemux-1080p (Расширенная версия).mkv
Format : Matroska
Format version : Version 2
File size : 29.2 GiB
Duration : 2h 14mn
Overall bit rate mode : Variable
Overall bit rate : 31.0 Mbps
Movie name : Миллион способов умереть на Диком Западе [Расширенная версия] / A Million Ways to Die in the West [Unrated] (2014)
Encoded date : UTC 2016-02-20 11:51:52
Writing application : mkvmerge v5.5.0 ('Healer') built on Apr 24 2012 23:47:03
Writing library : libebml v1.2.3 + libmatroska v1.3.0
Attachements : cover.png
Video
ID : 1
Format : AVC
Format/Info : Advanced Video Codec
Format profile : High@L4.1
Format settings, CABAC : Yes
Format settings, ReFrames : 4 frames
Codec ID : V_MPEG4/ISO/AVC
Duration : 2h 14mn
Bit rate mode : Variable
Maximum bit rate : 35.0 Mbps
Width : 1 920 pixels
Height : 1 080 pixels
Display aspect ratio : 16:9
Frame rate mode : Constant
Frame rate : 23.976 (24000/1001) fps
Color space : YUV
Chroma subsampling : 4:2:0
Bit depth : 8 bits
Scan type : Progressive
Title : BDRemux (1080p) / MPEG-4 AVC/H.264 / 35.0 mbps / 1920x1080 / 23.976 fps
Language : English
Default : Yes
Forced : Yes
Audio #1
ID : 2
Format : AC-3
Format/Info : Audio Coding 3
Mode extension : CM (complete main)
Format settings, Endianness : Big
Codec ID : A_AC3
Duration : 2h 14mn
Bit rate mode : Constant
Bit rate : 448 Kbps
Channel(s) : 6 channels
Channel positions : Front: L C R, Side: L R, LFE
Sampling rate : 48.0 KHz
Frame rate : 31.250 fps (1536 spf)
Compression mode : Lossy
Stream size : 432 MiB (1%)
Title : DUB + DVO Paradox [вставки] (Rus) / AC3 / 6 ch / 448 kbps / 48 kHz
Language : Russian
Default : Yes
Forced : Yes
Audio #2
ID : 3
Format : AC-3
Format/Info : Audio Coding 3
Mode extension : CM (complete main)
Format settings, Endianness : Big
Codec ID : A_AC3
Duration : 2h 14mn
Bit rate mode : Constant
Bit rate : 192 Kbps
Channel(s) : 2 channels
Channel positions : Front: L R
Sampling rate : 48.0 KHz
Frame rate : 31.250 fps (1536 spf)
Compression mode : Lossy
Stream size : 185 MiB (1%)
Title : MVO Filiza Studio + AVO Матвеев (Doctor Joker) [вставки] (Rus) / AC3 / 2 ch / 192 kbps / 48 kHz
Language : Russian
Default : No
Forced : No
Audio #3
ID : 4
Format : DTS
Format/Info : Digital Theater Systems
Mode : 16
Format settings, Endianness : Big
Codec ID : A_DTS
Duration : 2h 14mn
Bit rate mode : Constant
Bit rate : 1 509 Kbps
Channel(s) : 6 channels
Channel positions : Front: L C R, Side: L R, LFE
Sampling rate : 48.0 KHz
Frame rate : 93.750 fps (512 spf)
Bit depth : 24 bits
Compression mode : Lossy
Stream size : 1.42 GiB (5%)
Title : AVO Матвеев [Doctor Joker] (Rus) / DTS / 6 ch / 1510 kbps / 48 kHz
Language : Russian
Default : No
Forced : No
Audio #4
ID : 5
Format : DTS
Format/Info : Digital Theater Systems
Format profile : MA / Core
Mode : 16
Format settings, Endianness : Big
Codec ID : A_DTS
Duration : 2h 14mn
Bit rate mode : Variable / Constant
Bit rate : Unknown / 1 509 Kbps
Channel(s) : 6 channels
Channel positions : Front: L C R, Side: L R, LFE
Sampling rate : 48.0 KHz
Frame rate : 93.750 fps (512 spf)
Bit depth : 24 bits
Compression mode : Lossless / Lossy
Title : Original (Eng) / DTS-HD MA / 6 ch / 3666 kbps / 48 kHz
Language : English
Default : No
Forced : No
Audio #5
ID : 6
Format : AC-3
Format/Info : Audio Coding 3
Format profile : Dolby Digital
Mode extension : CM (complete main)
Format settings, Endianness : Big
Codec ID : A_AC3
Duration : 2h 14mn
Bit rate mode : Constant
Bit rate : 192 Kbps
Channel(s) : 2 channels
Channel positions : Front: L R
Sampling rate : 48.0 KHz
Frame rate : 31.250 fps (1536 spf)
Compression mode : Lossy
Stream size : 185 MiB (1%)
Title : Commentary (Eng) / AC3 / 2 ch / 192 kbps / 48 kHz
Language : English
Default : No
Forced : No
Text #1
ID : 7
Format : UTF-8
Codec ID : S_TEXT/UTF8
Codec ID/Info : UTF-8 Plain Text
Title : Forced [Матвеев (Doctor Joker)] (Rus) / S_TEXT/UTF8
Language : Russian
Default : No
Forced : No
Text #2
ID : 8
Format : UTF-8
Codec ID : S_TEXT/UTF8
Codec ID/Info : UTF-8 Plain Text
Title : Full (Rus) / S_TEXT/UTF8
Language : Russian
Default : No
Forced : No
Text #3
ID : 9
Format : UTF-8
Codec ID : S_TEXT/UTF8
Codec ID/Info : UTF-8 Plain Text
Title : Full [Матвеев (Doctor Joker)] (Rus) / S_TEXT/UTF8
Language : Russian
Default : No
Forced : No
Text #4
ID : 10
Format : UTF-8
Codec ID : S_TEXT/UTF8
Codec ID/Info : UTF-8 Plain Text
Title : Full (Eng) / S_TEXT/UTF8
Language : English
Default : No
Forced : No
Text #5
ID : 11
Format : UTF-8
Codec ID : S_TEXT/UTF8
Codec ID/Info : UTF-8 Plain Text
Title : Full [SDH] (Eng) / S_TEXT/UTF8
Language : English
Default : No
Forced : No
Menu
00:00:00.000 : en:00:00:00.000
00:03:02.140 : en:00:03:02.140
00:10:16.115 : en:00:10:16.115
00:14:17.315 : en:00:14:17.315
00:20:15.214 : en:00:20:15.214
00:24:56.495 : en:00:24:56.495
00:35:36.843 : en:00:35:36.843
00:42:33.843 : en:00:42:33.843
00:48:56.225 : en:00:48:56.225
00:55:28.533 : en:00:55:28.533
01:02:34.125 : en:01:02:34.125
01:13:24.025 : en:01:13:24.025
01:22:45.961 : en:01:22:45.961
01:30:53.031 : en:01:30:53.031
01:35:20.089 : en:01:35:20.089
01:42:03.659 : en:01:42:03.659
01:45:44.380 : en:01:45:44.380
01:53:38.478 : en:01:53:38.478
02:01:40.585 : en:02:01:40.585
02:08:31.162 : en:02:08:31.162

Скриншоты


_________________
Показать сообщения:    

Текущее время: Сегодня 06:17

Часовой пояс: GMT



Вы не можете начинать темы
Вы не можете отвечать на сообщения
Вы не можете редактировать свои сообщения
Вы не можете удалять свои сообщения
Вы не можете голосовать в опросах
Вы не можете прикреплять файлы к сообщениям
Вы не можете скачивать файлы
Наши партнеры: интернет магазин Ивановского трикотажа textilla.ru