Ивановский Торрент трекер
Яндекс.Погода
Статистика раздачи
Размер:  7.72 GB   |    Зарегистрирован:  1 год 9 месяцев   |    Скачан:  0 раз

Полного источника не было: Никогда

 
     
 
 
 

[Цитировать]
HUNTER

Миллион способов потерять голову / Миллион способов умереть на Диком Западе / A Million Ways to Die in the West / Unrated
-BDRemux-1080p | BDRip-1080p | BDRip-720p | BDRip-AVC | Audio-Страна: США
Жанр: комедия, вестерн
Год выпуска: 2014
Продолжительность: 02:14:44
Перевод 1: Профессиональный (дублированный) + DVO Студия "Paradox"
Перевод 2: Профессиональный (многоголосый закадровый) Filiza Studio + VO Матвеев
Перевод 3: Одноголосый закадровый - Матвеев [Doctor Joker]
Оригинальная дорожка: Английский
Cубтитры: Русские (Forced, 2 x full), Английские (2 x full)
Режиссер: Сет МакФарлейн / Seth MacFarlane
В ролях: Сет МакФарлейн, Шарлиз Терон, Аманда Сайфред, Лиам Нисон, Джованни Рибизи, Нил Патрик Харрис, Сара Силверман, Кристофер Хэйген, Уэс Стьюди, Мэтт Кларк.
Описание: Угораздило же влюбиться не в том месте и не в то время. Здесь хамят в ресторанах, о горячей воде слагают легенды, да и с транспортом полный коллапс. Но у таинственной незнакомки отменная фигура, да и стреляет она без промаха. Кто же по своей воле откажется от такой красотки?
Доп. информация: UNRATED - Расширенная версия, длиннее театральной на ~19 минут! Полный перевод!
- Расширенные места в Дублированном переводе овучены студией "Paradox".
- Полный перевод MVO Filiza Studio сделал сам, путём склейки театральной и расширенной версий фильма. Был произведён небольшой "ремастеринг" звука, на расширенные места перевод Алексея Матвеева "Doctor Joker".
- Перевод А. Матвеева "Doctor Joker" доступен благодаря: Старый, GodFather, olddrinker, boldino, Roy33, save2x2, R.U., 7654, Shrooms, Lecter1975, Wa1ker, sancrew, napaHouk
- Дорожки с дублированным переводом и переводом Матвеева скачаны из сети
Сэмпл: https://www.sendspace.com/file/7g0ts0
Тип релиза: BDRip 720p
Контейнер: MKV
Видео: MPEG-4 AVC/H.264 / 5600 kbps / 1280x532 / 23.976 fps
Аудио 1: Rus / AC3 / 6 ch / 448 kbps / 48 kHz - DUB + DVO Paradox [вставки]
Аудио 2: Rus / AC3 / 2 ch / 192 kbps / 48 kHz - MVO Filiza Studio + VO Doctor Joker [вставки]
Аудио 3: Rus / AC3 / 6 ch / 448 kbps / 48 kHz - VO Doctor Joker
Аудио 4: Eng / DTS / 6 ch / 1510 kbps / 48 kHz
Формат субтитров: softsub (SRT)
Доп. информация о субтитрах: Русские (Forced, 2 x full), Английские (2 x full)
#Сохранены оригинальные чаптеры как на Blu-ray

MediaInfo

General
Unique ID : 239705281150989383943180111590806345227 (0xB4558ED1334F1E07B2830FA875AD560B)
Complete name : J:\Torrents\A.Million.Ways.to.Die.in.the.West.2014.Unrated.DUAL.BDRip.2,91Gb.XviD.AC3\Миллион способов потерять голову (2014) BDRip-720p (Расширенная версия).mkv
Format : Matroska
Format version : Version 2
File size : 7.72 GiB
Duration : 2h 14mn
Overall bit rate : 8 199 Kbps
Movie name : Миллион способов умереть на Диком Западе [Расширенная версия] / A Million Ways to Die in the West [Unrated] (2014)
Encoded date : UTC 2016-02-20 12:58:57
Writing application : mkvmerge v5.5.0 ('Healer') built on Apr 24 2012 23:47:03
Writing library : libebml v1.2.3 + libmatroska v1.3.0
Attachements : cover.png
Video
ID : 1
Format : AVC
Format/Info : Advanced Video Codec
Format profile : High@L4.1
Format settings, CABAC : Yes
Format settings, ReFrames : 8 frames
Codec ID : V_MPEG4/ISO/AVC
Duration : 2h 14mn
Bit rate : 5 600 Kbps
Width : 1 280 pixels
Height : 532 pixels
Display aspect ratio : 2.40:1
Frame rate mode : Constant
Frame rate : 23.976 (24000/1001) fps
Color space : YUV
Chroma subsampling : 4:2:0
Bit depth : 8 bits
Scan type : Progressive
Bits/(Pixel*Frame) : 0.343
Stream size : 5.12 GiB (66%)
Title : BDRip (720p) / MPEG-4 AVC/H.264 / 5600 kbps / 1280x532 / 23.976 fps
Writing library : x264 core 133 r2334 a3ac64b
Encoding settings : cabac=1 / ref=8 / deblock=1:-1:-1 / analyse=0x3:0x113 / me=umh / subme=11 / psy=1 / psy_rd=1.00:0.20 / mixed_ref=1 / me_range=32 / chroma_me=1 / trellis=2 / 8x8dct=1 / cqm=0 / deadzone=21,11 / fast_pskip=0 / chroma_qp_offset=-3 / threads=12 / lookahead_threads=1 / sliced_threads=0 / nr=0 / decimate=0 / interlaced=0 / bluray_compat=0 / constrained_intra=0 / bframes=6 / b_pyramid=2 / b_adapt=2 / b_bias=0 / direct=3 / weightb=1 / open_gop=0 / weightp=2 / keyint=240 / keyint_min=23 / scenecut=40 / intra_refresh=0 / rc_lookahead=40 / rc=2pass / mbtree=0 / bitrate=5600 / ratetol=1.0 / qcomp=0.60 / qpmin=0 / qpmax=69 / qpstep=4 / cplxblur=20.0 / qblur=0.5 / vbv_maxrate=50000 / vbv_bufsize=62500 / nal_hrd=none / ip_ratio=1.40 / pb_ratio=1.30 / aq=1:1.00
Language : English
Default : Yes
Forced : Yes
Audio #1
ID : 2
Format : AC-3
Format/Info : Audio Coding 3
Mode extension : CM (complete main)
Format settings, Endianness : Big
Codec ID : A_AC3
Duration : 2h 14mn
Bit rate mode : Constant
Bit rate : 448 Kbps
Channel(s) : 6 channels
Channel positions : Front: L C R, Side: L R, LFE
Sampling rate : 48.0 KHz
Frame rate : 31.250 fps (1536 spf)
Compression mode : Lossy
Stream size : 432 MiB (5%)
Title : DUB + DVO Paradox [вставки] (Rus) / AC3 / 6 ch / 448 kbps / 48 kHz
Language : Russian
Default : Yes
Forced : Yes
Audio #2
ID : 3
Format : AC-3
Format/Info : Audio Coding 3
Mode extension : CM (complete main)
Format settings, Endianness : Big
Codec ID : A_AC3
Duration : 2h 14mn
Bit rate mode : Constant
Bit rate : 192 Kbps
Channel(s) : 2 channels
Channel positions : Front: L R
Sampling rate : 48.0 KHz
Frame rate : 31.250 fps (1536 spf)
Compression mode : Lossy
Stream size : 185 MiB (2%)
Title : MVO Filiza Studio + AVO Матвеев (Doctor Joker) [вставки] (Rus) / AC3 / 2 ch / 192 kbps / 48 kHz
Language : Russian
Default : No
Forced : No
Audio #3
ID : 4
Format : AC-3
Format/Info : Audio Coding 3
Mode extension : CM (complete main)
Format settings, Endianness : Big
Codec ID : A_AC3
Duration : 2h 14mn
Bit rate mode : Constant
Bit rate : 448 Kbps
Channel(s) : 6 channels
Channel positions : Front: L C R, Side: L R, LFE
Sampling rate : 48.0 KHz
Frame rate : 31.250 fps (1536 spf)
Compression mode : Lossy
Stream size : 432 MiB (5%)
Title : AVO Матвеев [Doctor Joker] (Rus) / AC3 / 6 ch / 448 kbps / 48 kHz
Language : Russian
Default : No
Forced : No
Audio #4
ID : 5
Format : DTS
Format/Info : Digital Theater Systems
Mode : 16
Format settings, Endianness : Big
Codec ID : A_DTS
Duration : 2h 14mn
Bit rate mode : Constant
Bit rate : 1 509 Kbps
Channel(s) : 6 channels
Channel positions : Front: L C R, Side: L R, LFE
Sampling rate : 48.0 KHz
Frame rate : 93.750 fps (512 spf)
Bit depth : 24 bits
Compression mode : Lossy
Stream size : 1.42 GiB (18%)
Title : Original (Eng) / DTS / 6 ch / 1510 kbps / 48 kHz
Language : English
Default : No
Forced : No
Text #1
ID : 6
Format : UTF-8
Codec ID : S_TEXT/UTF8
Codec ID/Info : UTF-8 Plain Text
Title : Forced [Матвеев (Doctor Joker)] (Rus) / S_TEXT/UTF8
Language : Russian
Default : No
Forced : No
Text #2
ID : 7
Format : UTF-8
Codec ID : S_TEXT/UTF8
Codec ID/Info : UTF-8 Plain Text
Title : Full (Rus) / S_TEXT/UTF8
Language : Russian
Default : No
Forced : No
Text #3
ID : 8
Format : UTF-8
Codec ID : S_TEXT/UTF8
Codec ID/Info : UTF-8 Plain Text
Title : Full [Матвеев (Doctor Joker)] (Rus) / S_TEXT/UTF8
Language : Russian
Default : No
Forced : No
Text #4
ID : 9
Format : UTF-8
Codec ID : S_TEXT/UTF8
Codec ID/Info : UTF-8 Plain Text
Title : Full (Eng) / S_TEXT/UTF8
Language : English
Default : No
Forced : No
Text #5
ID : 10
Format : UTF-8
Codec ID : S_TEXT/UTF8
Codec ID/Info : UTF-8 Plain Text
Title : Full [SDH] (Eng) / S_TEXT/UTF8
Language : English
Default : No
Forced : No
Menu
00:00:00.000 : en:00:00:00.000
00:03:02.140 : en:00:03:02.140
00:10:16.115 : en:00:10:16.115
00:14:17.315 : en:00:14:17.315
00:20:15.214 : en:00:20:15.214
00:24:56.495 : en:00:24:56.495
00:35:36.843 : en:00:35:36.843
00:42:33.843 : en:00:42:33.843
00:48:56.225 : en:00:48:56.225
00:55:28.533 : en:00:55:28.533
01:02:34.125 : en:01:02:34.125
01:13:24.025 : en:01:13:24.025
01:22:45.961 : en:01:22:45.961
01:30:53.031 : en:01:30:53.031
01:35:20.089 : en:01:35:20.089
01:42:03.659 : en:01:42:03.659
01:45:44.380 : en:01:45:44.380
01:53:38.478 : en:01:53:38.478
02:01:40.585 : en:02:01:40.585
02:08:31.162 : en:02:08:31.162

Скриншоты

[iv-torrents.ru].t54785.torrent
Торрент: Зарегистрирован [ 2016-03-13 07:40 ] · 366F51CF9817CC9567B9217B7F1E627ABE661138

Скачать .torrent

Скачать

20 KB

Статус: проверено
Скачан: 0 раз
Размер: 7.72 GB
terms.php
Похожие темы


Показать сообщения:    

Текущее время: 18-Дек 14:53

Часовой пояс: UTC ± 0


Вы не можете начинать темы
Вы не можете отвечать на сообщения
Вы не можете редактировать свои сообщения
Вы не можете удалять свои сообщения
Вы не можете голосовать в опросах
Вы не можете прикреплять файлы к сообщениям
Вы можете скачивать файлы

!ВНИМАНИЕ!
Сайт не предоставляет электронные версии произведений, а занимается лишь коллекционированием и каталогизацией ссылок, присылаемых и публикуемых на форуме нашими читателями. Если вы являетесь правообладателем какого-либо представленного материала и не желаете, чтобы ссылка на него находилась в нашем каталоге, свяжитесь с нами, и мы незамедлительно удалим ее. Файлы для обмена на трекере предоставлены пользователями сайта, и администрация не несет ответственности за их содержание. Просьба не заливать файлы, защищенные авторскими правами, а также файлы нелегального содержания!