Ивановский Торрент трекер
Яндекс.Погода
 

[Цитировать]
HUNTER

Милая Фрэнсис / Frances Ha / Criterion Collection#681 «История о тебе»
Страна:США
Студия:Pine District Pictures, RT Features, Scott Rudin Productions.
Жанр:Драма, КомедияГод выпуска:2012
Продолжительность:01:25:58
Производитель:The Criterion Collection #681
Перевод:Профессиональный (дублированный) Мосфильм
Cубтитры:Английские, Русские Егор Тесля
Оригинальная аудиодорожка:Английский
Премьера (мир):1.09.2012
Режиссер:Ноа Баумбах / Noah BaumbachВ ролях:Грета Гервиг, Мики Самнер, Майкл Эспер, Адам Драйвер, Майкл Зеген, Шарлотта д’Амбойз, Грэйс Гаммер, Дайва Дюпри, Изабель МакНалли, Ванесса Рэй
Описание:Фрэнсис живёт в Нью-Йорке, но у нее, по сути, нет дома. Фрэнсис работает в танцевальной труппе, но она, признаться, совсем не танцор. У Фрэнсис есть лучшая подруга Софи, но теперь они почти не общаются, если честно. Фрэнсис живет своими мечтами, которые с каждым днем становятся все более несбыточными. Фрэнсис хочет намного больше, чем может себе позволить, но она все равно проживает жизнь с легкостью, беспечностью и изяществом.
Доп. информация:Исходник найден в сети.Профессиональный( дублированный)Мосфильмвзят из раздачи андр64-http://rutracker.org/forum/viewtopic.php?t=4628334.Русские субтитры-Егор ТесляРеавторинг Нордер.Огромное Спасибо Всем, без чьей помощи этот релиз не состоялся бы!Сценарий:Ноа Баумбак, Грета ГервигПродюсер:Ноа Баумбак, Скотт Рудин, Родриго ТейшейраОператор:Сэм ЛевиХудожник:Сэм ЛисенкоМонтаж:Дженнифер Лэйм

Знаете ли вы, что...

Награды и номинации


Рецензия

Софт

PGCDemux (извлечение).
BeSweet, Sony Vegas 9 (звук).
DVD-lab PRO 2, Subtitle Workshop (субтитры).
MuxMan (сборка). DvdReMakePro (финал).

Бонусы:(Без перевода)

-New conversation between filmmaker Peter Bogdanovich and Baumbach
-New conversation between actor and filmmaker Sarah Polley and the film’s cowriter and star, Greta Gerwig
-New conversation about the look of Frances Ha between Baumbach, director of photography Sam Levy, and Pascal Dangin, who did the film’s color mastering
-Trailer
Меню:Английский, статичное, озвученное.Сэмпл:https://www.sendspace.com/file/al0l3n
Тип релиза:DVD9 (Custom)
Контейнер:DVD-Video
Видео:NTSC 16:9 (720x480) VBR, Auto Letterboxed, 7262 Кбит/сек, 23,976 кадра/сек
Аудио 1:Русский:AC3, 6 ch, 48.0 KHz, 448 Кбит/сек / Профессиональный( дублированный)МосфильмАудио 2:Английский:AC3, 6 ch, 48.0 KHz, 448 Кбит/сек / Оригинал
Формат субтитров:prerendered (DVD/IDX+SUB)

Dvd Info

Title: Frances Ha DVD-9_Custom_Criterion#681
Size: 7.86 Gb ( 8 240 962,00 KBytes ) - DVD-9
Enabled regions: 1, 2, 3, 4, 5, 6, 7, 8
VTS_01 :
Play Length: 00:00:00
Video: NTSC 16:9 (720x480) VBR, Auto Letterboxed
VTS_02 :
Play Length: 00:15:20
Video: NTSC 16:9 (720x480) VBR, Auto Letterboxed
Audio:
English, AC3, 3/2 (L,C,R,SL,SR)+LFE ch, 448 kbps, Delay 0 mSec
VTS_03 :
Play Length: 00:01:56
Video: NTSC 16:9 (720x480) VBR, Auto Letterboxed
Audio:
English, AC3, 3/2 (L,C,R,SL,SR)+LFE ch, 448 kbps, Delay 0 mSec
VTS_04 :
Play Length: 01:25:58
Video: NTSC 16:9 (720x480) VBR, Auto Letterboxed
Audio:
Russian, AC3, 3/2 (L,C,R,SL,SR)+LFE ch, 448 kbps, Delay 0 mSec
English, AC3, 3/2 (L,C,R,SL,SR)+LFE ch, 448 kbps, Delay 0 mSec
Subtitles:
English
Russian
VTS_05 :
Play Length: 00:00:20
Video: NTSC 16:9 (720x480) VBR, Auto Pan&Scan
VTS_06 :
Play Length: 00:18:18
Video: NTSC 16:9 (720x480) VBR, Auto Letterboxed
Audio:
English, AC3, 2/0 (L,R) ch, 192 kbps, Delay 0 mSec
VTS_07 :
Play Length: 00:16:59
Video: NTSC 16:9 (720x480) VBR, Auto Letterboxed
Audio:
English, AC3, 3/2 (L,C,R,SL,SR)+LFE ch, 448 kbps, Delay 0 mSec
VTS_08 :
Play Length: 00:00:00
Video: NTSC 4:3 (720x480) VBR

Mediainfo

Общее
Полное имя: F:\Frances Ha DVD-9_Custom_Criterion#681\VIDEO_TS\VTS_04_2.VOB
Формат : MPEG-PS
Размер файла : 1024 Мбайт
Продолжительность : 17 м.
Режим общего битрейта : Переменный
Общий поток : 8324 Кбит/сек
Видео
Идентификатор : 224 (0xE0)
Формат : MPEG Video
Версия формата : Version 2
Профиль формата : Main@Main
Параметр BVOP формата : Да
Параметр матрицы формата : Выборочная
Параметр GOP формата : Variable
Продолжительность : 17 м.
Вид битрейта : Переменный
Битрейт : 7262 Кбит/сек
Максимальный битрейт : 9800 Кбит/сек
Ширина : 720 пикселей
Высота : 480 пикселей
Соотношение сторон : 16:9
Частота кадров : 23,976 кадра/сек
Стандарт вещания : NTSC
Цветовое пространство : YUV
Субдискретизация насыщенности : 4:2:0
Битовая глубина : 8 бит
Тип развёртки : Прогрессивная
Порядок развёртки : 2:3 Pulldown
Метод сжатия : С потерями
Бит/(Пиксели*Кадры) : 0.876
Временной код первого кадра : 01:17:47:26
Оригинал временного кода : Group of pictures header
Размер потока : 893 Мбайт (87%)
Аудио #1
Идентификатор : 189 (0xBD)-128 (0x80)
Формат : AC-3
Формат/Информация : Audio Coding 3
Расширение режима : CM (complete main)
Параметр Endianness формата : Big
Режим смешивания : DVD-Video
Продолжительность : 17 м.
Вид битрейта : Постоянный
Битрейт : 448 Кбит/сек
Каналы : 6 каналов
Расположение каналов : Front: L C R, Side: L R, LFE
Частота : 48,0 КГц
Битовая глубина : 16 бит
Метод сжатия : С потерями
Задержка видео : -323 мс.
Размер потока : 55,1 Мбайт (5%)
Аудио #2
Идентификатор : 189 (0xBD)-129 (0x81)
Формат : AC-3
Формат/Информация : Audio Coding 3
Расширение режима : CM (complete main)
Параметр Endianness формата : Big
Режим смешивания : DVD-Video
Продолжительность : 17 м.
Вид битрейта : Постоянный
Битрейт : 448 Кбит/сек
Каналы : 6 каналов
Расположение каналов : Front: L C R, Side: L R, LFE
Частота : 48,0 КГц
Битовая глубина : 16 бит
Метод сжатия : С потерями
Задержка видео : -323 мс.
Размер потока : 55,1 Мбайт (5%)
Текст #1
Идентификатор : 189 (0xBD)-32 (0x20)
Формат : RLE
Формат/Информация : Run-length encoding
Режим смешивания : DVD-Video
Текст #2
Идентификатор : 189 (0xBD)-33 (0x21)
Формат : RLE
Формат/Информация : Run-length encoding
Режим смешивания : DVD-Video
Текст #3
Идентификатор : 189 (0xBD)-34 (0x22)
Формат : RLE
Формат/Информация : Run-length encoding
Режим смешивания : DVD-Video

Скриншоты меню

Скриншоты

Скриншоты доп. материалов



Релиз: Уважаемые пользователи!Найдите пару минут поблагодарить релизера и высказаться в топике раздачи.Ваше мнение - бальзам для раздающего и пища для ума остальным пользователям.Мои раздачи
Показать сообщения:    

Текущее время: 19-Сен 12:42

Часовой пояс: UTC - 1


Вы не можете начинать темы
Вы не можете отвечать на сообщения
Вы не можете редактировать свои сообщения
Вы не можете удалять свои сообщения
Вы не можете голосовать в опросах
Вы не можете прикреплять файлы к сообщениям
Вы не можете скачивать файлы

!ВНИМАНИЕ!
Сайт не предоставляет электронные версии произведений, а занимается лишь коллекционированием и каталогизацией ссылок, присылаемых и публикуемых на форуме нашими читателями. Если вы являетесь правообладателем какого-либо представленного материала и не желаете, чтобы ссылка на него находилась в нашем каталоге, свяжитесь с нами, и мы незамедлительно удалим ее. Файлы для обмена на трекере предоставлены пользователями сайта, и администрация не несет ответственности за их содержание. Просьба не заливать файлы, защищенные авторскими правами, а также файлы нелегального содержания!