Важное объявление!
У Нас Все раздачи мультитрекерные, при нуле пиров в релизах, можете смело вставать на закачку!
Статистика раздачи
Размер:     |    Зарегистрирован:     |    Скачан:     |   
Нет
 
     
 
 
Автор Сообщение

HUNTER

Стаж:
5 лет 1 месяц
Сообщений:
68439

Репутация: 101

[+] [-]
Вне форума [Профиль] [ЛС]

Миланский калибр 9 / Milano calibro 9
Страна: Италия
Жанр: боевик, криминал
Год выпуска: 1972
Продолжительность: 01:41:43
Перевод: Одноголосый закадровый
Cубтитры: Russian, English
Оригинальная аудиодорожка: итальянский-Режиссер: Фернандо Ди Лео / Fernando Di Leo-В ролях: Гастоне Москин, Барбара Буше, Марио Адорф, Фрэнк Вулф, Луиджи Пистилли, Иво Гаррани, Филипп Леруа, Лайонел Стэндер, Марио Новелли, Джузеппе Кастеллано-Описание: История закручивается на чемодане с деньгами, который бандиты передавали друг другу, а в результате босс обнаружил в нём бумагу вместо денег. Всех подельников пытали и убили, кроме одного. Это был Уго Пьяцца. Он сел в тюрьму на три года, и после выхода на свободу его сразу же начали преследовать старые подельники, на 100% уверенные, что это он украл деньги. Они не спешат убить его, а он старается доказать, что не имеет никакого отношения к пропаже денег. Но кто же тогда своровал такую большую сумму и остался незамеченным?-Релиз:
-Качество видео: BDRip | SbR
Формат видео: MKV
Видео: 1280x692 at 23.976 fps, x264@L4.1, ~8491 kbps avg
Аудио 1: Russian: 48 kHz, AC3, 2/0 (L,R) ch, ~192.00 kbps avg |Одноголосый закадровый|
Аудио 2: Italian: 48 kHz, FLAC 2.0, ~225.00 kbps avg
Аудио 3: English: 48 kHzt, FLAC2.0, ~265.00 kbps avg-Скачать сэмпл-
Код:
Сохранены оригинальные чаптеры с Blu-Ray

MediaInfo

Код:
Format                      : Matroska
Format version              : Version 4 / Version 2
File size                   : 6.54 GiB
Duration                    : 1 h 42 min
Overall bit rate mode       : Variable
Overall bit rate            : 9 177 kb/s
Encoded date                : UTC 2016-08-28 13:57:40
Writing application         : mkvmerge v9.4.0 ('Knurl') 32bit
Writing library             : libebml v1.3.4 + libmatroska v1.4.5
Cover                       : Yes
Attachments                 : cover.jpg
Video
ID                          : 1
Format                      : AVC
Format/Info                 : Advanced Video Codec
Format profile              : High@L4.1
Format settings, CABAC      : Yes
Format settings, ReFrames   : 9 frames
Codec ID                    : V_MPEG4/ISO/AVC
Duration                    : 1 h 42 min
Bit rate                    : 8 491 kb/s
Width                       : 1 280 pixels
Height                      : 692 pixels
Display aspect ratio        : 1.85:1
Frame rate mode             : Constant
Frame rate                  : 23.976 (24000/1001) FPS
Color space                 : YUV
Chroma subsampling          : 4:2:0
Bit depth                   : 8 bits
Scan type                   : Progressive
Bits/(Pixel*Frame)          : 0.400
Stream size                 : 6.05 GiB (93%)
Title                       : Milano calibro 9 (1972)
Writing library             : x264 core 135 r2345kMod f0c1c53
Encoding settings           : cabac=1 / ref=9 / deblock=1:-3:-3 / analyse=0x3:0x133 / me=umh / subme=11 / psy=1 / fade_compensate=0.00 / psy_rd=1.00:0.05 / mixed_ref=1 / me_range=36 / chroma_me=1 / trellis=2 / 8x8dct=1 / cqm=0 / deadzone=21,11 / fast_pskip=0 / chroma_qp_offset=-3 / threads=12 / lookahead_threads=3 / sliced_threads=0 / nr=0 / decimate=1 / interlaced=0 / bluray_compat=0 / constrained_intra=0 / bframes=16 / b_pyramid=2 / b_adapt=2 / b_bias=0 / direct=3 / weightb=1 / open_gop=0 / weightp=2 / keyint=250 / keyint_min=23 / scenecut=40 / intra_refresh=0 / rc_lookahead=60 / rc=crf / mbtree=1 / crf=21.0000 / qcomp=0.80 / qpmin=0 / qpmax=69 / qpstep=4 / ip_ratio=1.10 / aq=3:0.60
Language                    : Italian
Default                     : Yes
Forced                      : No
Audio #1
ID                          : 2
Format                      : AC-3
Format/Info                 : Audio Coding 3
Mode extension              : CM (complete main)
Format settings, Endianness : Big
Codec ID                    : A_AC3
Duration                    : 1 h 42 min
Bit rate mode               : Constant
Bit rate                    : 192 kb/s
Channel(s)                  : 2 channels
Channel positions           : Front: L R
Sampling rate               : 48.0 kHz
Frame rate                  : 31.250 FPS (1536 spf)
Compression mode            : Lossy
Stream size                 : 140 MiB (2%)
Language                    : Russian
Default                     : Yes
Forced                      : No
Audio #2
ID                          : 3
Format                      : FLAC
Format/Info                 : Free Lossless Audio Codec
Codec ID                    : A_FLAC
Duration                    : 1 h 42 min
Bit rate mode               : Variable
Bit rate                    : 225 kb/s
Channel(s)                  : 2 channels
Channel positions           : Front: L R
Sampling rate               : 48.0 kHz
Frame rate                  : 11.719 FPS (4096 spf)
Bit depth                   : 16 bits
Stream size                 : 165 MiB (2%)
Writing library             : libFLAC 1.2.1 (UTC 2007-09-17)
Language                    : Italian
Default                     : No
Forced                      : No
Audio #3
ID                          : 4
Format                      : FLAC
Format/Info                 : Free Lossless Audio Codec
Codec ID                    : A_FLAC
Duration                    : 1 h 42 min
Bit rate mode               : Variable
Bit rate                    : 265 kb/s
Channel(s)                  : 2 channels
Channel positions           : Front: L R
Sampling rate               : 48.0 kHz
Frame rate                  : 11.719 FPS (4096 spf)
Bit depth                   : 16 bits
Stream size                 : 193 MiB (3%)
Writing library             : libFLAC 1.2.1 (UTC 2007-09-17)
Language                    : English
Default                     : No
Forced                      : No
Text #1
ID                          : 5
Format                      : UTF-8
Codec ID                    : S_TEXT/UTF8
Codec ID/Info               : UTF-8 Plain Text
Duration                    : 1 h 38 min
Bit rate                    : 61 b/s
Count of elements           : 846
Stream size                 : 44.3 KiB (0%)
Language                    : Russian
Default                     : No
Forced                      : No
Text #2
ID                          : 6
Format                      : UTF-8
Codec ID                    : S_TEXT/UTF8
Codec ID/Info               : UTF-8 Plain Text
Duration                    : 1 h 38 min
Bit rate                    : 36 b/s
Count of elements           : 846
Stream size                 : 26.3 KiB (0%)
Language                    : English
Default                     : No
Forced                      : No
Menu
00:00:00.000                : en:00:00:00.000
00:08:02.941                : en:00:08:02.941
00:14:19.734                : en:00:14:19.734
00:25:56.764                : en:00:25:56.764
00:35:21.328                : en:00:35:21.328
00:43:25.812                : en:00:43:25.812
00:58:13.532                : en:00:58:13.532
01:09:08.686                : en:01:09:08.686
01:20:31.035                : en:01:20:31.035
01:35:53.164                : en:01:35:53.164
01:39:59.285                : en:01:39:59.285

Скриншоты


_________________
Показать сообщения:    

Текущее время: Сегодня 00:27

Часовой пояс: GMT



Вы не можете начинать темы
Вы не можете отвечать на сообщения
Вы не можете редактировать свои сообщения
Вы не можете удалять свои сообщения
Вы не можете голосовать в опросах
Вы не можете прикреплять файлы к сообщениям
Вы не можете скачивать файлы