Ивановский Торрент трекер
Яндекс.Погода
 

[Цитировать]
HUNTER

Микки: Однажды под Рождество / Mickey's Once Upon a Christmas- Страна: США
Жанр: мультфильм, фэнтези, комедия, семейный
Продолжительность: 01:05:53
Год выпуска: 1999
Перевод: Профессиональный (полное дублирование)
Субтитры: Нет-Режиссер: Джан Фалкенштейн / Jun Falkenstein, Алекс Манн / Alex Mann, Брэдли Рэймонд / Bradley Raymond-Роли озвучивали: Келси Грэммер (рассказчик, озвучка), Уэйн Оллвэйн (Mickey Mouse, озвучка), Расси Тейлор (Minnie Mouse, Huey, Dewey, Louie, озвучка), Тони Ансельмо (Donald Duck, озвучка), Дайан Мишель (Daisy Duck (The Gift of Magi), озвучка), Тресс МакНилл (Chip, Daisy, Aunt Gurtie, озвучка), Алан Янг (Uncle Scrooge McDuck, озвучка), Билл Фармер (Goofy, Pluto, озвучка), Кори Бертон (Dale, озвучка), Шон Флемминг (Young Max Goof, озвучка), Джим Каммингс (Pete, Postman, Santa, Police, Fire Chief, Dad, Man, озвучка), Джефф Беннетт (Mortimer, Firefighter #2, Store Announcer, Man, Customer, Dad, озвучка)-Роли дублировали: Геннадий Богачёв (рассказчик), Максим Сергеев (Mickey Mouse), Снежина Копрова (Huey / Dewey / Louie; Daisy), Сауле Искакова (Minnie Mouse), Елена Ставрогина (Chip, Daisy, Aunt Gurtie (Aunt Gurtie)), Валерий Кухарешин (Uncle Scrooge McDuck), Михаил Вассербаум (Goofy), Станислав Ревазов (Young Max Goof), Вадим Никитин (Pete), Александр Баргман (Mortimer)-Описание: Микки, Минни и их знаменитые друзья Гуфи, Дональд, Дейзи и Плуто собираются вместе, чтобы рассказать в трех удивительных историях о волшебстве Рождества.
Мини и Микки расскажут о том, как однажды решили подарить друг другу незабываемое Рождество. Гуфи и Макс поделятся впечатлениями о своих рождественских приключениях, а еще о том, как к ним в гости пришел настоящий Санта Клаус.
Племянники Дональда, Хьюи, Дьюи и Лун вспоминают те дни, когда они мечтали о наступлении Рождества каждый день, что, в конце концов, привело к веселой катастрофе.
-Рейтинг:
-Мировая премьера: 7 декабря 1999
Релиз на DVD: 16 ноября 2010, «Уолт Дисней Компани СНГ»-Релиз: -Качество: WEB-DLRip
Формат: AVI
Видео: 656x368 (1.78:1), 23.976 fps, XviD build 65 ~1440 kbps avg, 0.25 bit/pixel
Аудио : 48 kHz, MPEG Layer 3, 2 ch, ~128.00 kbps avg
Субтитры: Отсутствуют
-

MI

Format : AVIFormat/Info : Audio Video InterleaveFile size : 744 MiBDuration : 1h 5mnOverall bit rate : 1 578 KbpsWriting application : VirtualDubMod 1.5.10.3 | www.virtualdub-fr.org || (build 2550/release)Writing library : VirtualDubMod build 2550/release
VideoID : 0Format : MPEG-4 VisualFormat profile : Advanced Simple@L5Format settings, BVOP : 2Format settings, QPel : NoFormat settings, GMC : No warppointsFormat settings, Matrix : CustomCodec ID : XVIDCodec ID/Hint : XviDDuration : 1h 5mnBit rate : 1 441 KbpsWidth : 656 pixelsHeight : 368 pixelsDisplay aspect ratio : 16:9Frame rate : 23.976 fpsColor space : YUVChroma subsampling : 4:2:0Bit depth : 8 bitsScan type : ProgressiveCompression mode : LossyBits/(Pixel*Frame) : 0.249Stream size : 679 MiB (91%)Writing library : XviD 65
AudioID : 1Format : MPEG AudioFormat version : Version 1Format profile : Layer 3Codec ID : 55Codec ID/Hint : MP3Duration : 1h 5mnBit rate mode : ConstantBit rate : 128 KbpsChannel(s) : 2 channelsSampling rate : 48.0 KHzCompression mode : LossyStream size : 60.2 MiB (8%)Alignment : Aligned on interleavesInterleave, duration : 42 ms (1.00 video frame)Interleave, preload duration : 504 msWriting library : LAME3.99rEncoding settings : -m s -V 4 -q 2 -lowpass 17 -b 128
Все раздачи мультфильма
Показать сообщения:    

Текущее время: 18-Окт 12:06

Часовой пояс: UTC - 1


Вы не можете начинать темы
Вы не можете отвечать на сообщения
Вы не можете редактировать свои сообщения
Вы не можете удалять свои сообщения
Вы не можете голосовать в опросах
Вы не можете прикреплять файлы к сообщениям
Вы не можете скачивать файлы

!ВНИМАНИЕ!
Сайт не предоставляет электронные версии произведений, а занимается лишь коллекционированием и каталогизацией ссылок, присылаемых и публикуемых на форуме нашими читателями. Если вы являетесь правообладателем какого-либо представленного материала и не желаете, чтобы ссылка на него находилась в нашем каталоге, свяжитесь с нами, и мы незамедлительно удалим ее. Файлы для обмена на трекере предоставлены пользователями сайта, и администрация не несет ответственности за их содержание. Просьба не заливать файлы, защищенные авторскими правами, а также файлы нелегального содержания!