Ивановский Торрент трекер
Яндекс.Погода
 

[Цитировать]
HUNTER

Микки: И снова под Рождество
Mickey's Twice Upon a Christmas
«В два раза больше Рождественского веселья!»- Год выпуска: 2004
Страна: США
Жанр: мультфильм, фэнтези, комедия, семейный
Продолжительность: 01:07:43
Перевод:
Профессиональный (Дублированный)
Авторский (Одноголосый закадровый) - С. Визгунов
русские субтитры: есть-Режиссёр: Кэрол Холлидэй / Carole Holliday, Мэттью О’Каллаган / Matthew O'Callaghan, Тереза Петтенджилл / Theresa Pettengill-Роли озвучивали: Уэйн Оллвэйн, Тони Ансельмо, Джефф Беннетт, Джим Каммингс, Билл Фармер, Тресс МакНилл, Джейсон Мэрсден, Чак МакКанн, Клайв Ревилл, Расси Тейлор
Роли дублировали: Максим Сергеев, Андрей Тенетко, Михаил Вассербаум, Снежина Копрова, Владислав Галкин-Описание: Отчаянная погоня за неуловимым желудем катапультирует Скрата прямо в космос, где он случайно запускает целую серию космических событий. Именно они изменят весь мир Ледникового периода и станут реальной угрозой для него. Чтобы спастись, Сид, Мэнни, Диего и остальные звери должны покинуть свои дома, отправиться в забавное и захватывающее приключение в экзотические новые земли и встретиться со множеством красочных новых персонажей.- релиз: -- Работа с WEB-DL'ом -Azureus--Качество: WEB-DL 720p
Формат: MKV
Видео: 1280x718, 23,976 fps, ~4132 kbps avg, 0.188 bit/pixel
Аудио 1: [RUS] 48 kHz, AC3 Dolby Digital, 3/2 (L,C,R,l,r) + LFE ch, ~384 kbps - DUB
Аудио 2: [RUS] 48 kHz, AC3 Dolby Digital, 2/0 (L,R) ch, ~192 kbps - AVO
Аудио 3: [ENG] 48 kHz, AC3 Dolby Digital, 3/2 (L,C,R,l,r) + LFE ch, ~448 kbps - DVD
субтитры: русские (full, forced), английские (full, sdh)
навигация по главам: 7 глав (именные)

MI

Общее
Уникальный идентификатор : 244231408877697042852276385113208576070 (0xB7BD4224A68E66B79F07AD698E10D846)
Полное имя : D:\Mickey's Twice\Mickey's Twice Upon a Christmas.2004.WEB-DL 720p.mkv
Формат : Matroska
Версия формата : Version 4 / Version 2
Размер файла : 2,53 Гбайт
Продолжительность : 1 ч. 7 м.
Общий поток : 5343 Кбит/сек
Название фильма : Mickey's Twice Upon a Christmas.2004.WEB-DL 720p -Azureus-
Дата кодирования : UTC 2016-10-16 18:56:12
Программа кодирования : mkvmerge v9.4.0 ('Knurl') 64bit
Библиотека кодирования : libebml v1.3.4 + libmatroska v1.4.5
Видео
Идентификатор : 1
Формат : AVC
Формат/Информация : Advanced Video Codec
Профиль формата : High@L3.1
Параметр CABAC формата : Нет
Параметр ReFrames формата : 2 кадра
Параметр GOP формата : N=1
Идентификатор кодека : V_MPEG4/ISO/AVC
Продолжительность : 1 ч. 7 м.
Битрейт : 4132 Кбит/сек
Ширина : 1280 пикселей
Высота : 718 пикселей
Соотношение сторон : 16:9
Режим частоты кадров : Переменный
Частота кадров : 23,976 (23976/1000) кадра/сек
Цветовое пространство : YUV
Субдискретизация насыщенности : 4:2:0
Битовая глубина : 8 бит
Тип развёртки : Прогрессивная
Бит/(Пиксели*Кадры) : 0.188
Размер потока : 1,95 Гбайт (77%)
Язык : English
Default : Да
Forced : Нет
Цветовой диапазон : Limited
Основные цвета : BT.709
Характеристики трансфера : BT.709
Коэффициенты матрицы : BT.709
Аудио #1
Идентификатор : 2
Формат : AC-3
Формат/Информация : Audio Coding 3
Расширение режима : CM (complete main)
Параметр Endianness формата : Big
Идентификатор кодека : A_AC3
Продолжительность : 1 ч. 7 м.
Вид битрейта : Постоянный
Битрейт : 384 Кбит/сек
Каналы : 6 каналов
Расположение каналов : Front: L C R, Side: L R, LFE
Частота : 48,0 КГц
Частота кадров : 31,250 кадров/сек (1536 spf)
Метод сжатия : С потерями
Размер потока : 185 Мбайт (7%)
Заголовок : DUB
Язык : Russian
Default : Да
Forced : Нет
Аудио #2
Идентификатор : 3
Формат : AC-3
Формат/Информация : Audio Coding 3
Расширение режима : CM (complete main)
Параметр Endianness формата : Big
Идентификатор кодека : A_AC3
Продолжительность : 1 ч. 7 м.
Вид битрейта : Постоянный
Битрейт : 384 Кбит/сек
Каналы : 6 каналов
Расположение каналов : Front: L C R, Side: L R, LFE
Частота : 48,0 КГц
Частота кадров : 31,250 кадров/сек (1536 spf)
Метод сжатия : С потерями
Размер потока : 185 Мбайт (7%)
Заголовок : AVO - Визгунов
Язык : Russian
Default : Нет
Forced : Нет
Аудио #3
Идентификатор : 4
Формат : AC-3
Формат/Информация : Audio Coding 3
Расширение режима : CM (complete main)
Параметр Endianness формата : Big
Идентификатор кодека : A_AC3
Продолжительность : 1 ч. 7 м.
Вид битрейта : Постоянный
Битрейт : 448 Кбит/сек
Каналы : 6 каналов
Расположение каналов : Front: L C R, Side: L R, LFE
Частота : 48,0 КГц
Частота кадров : 31,250 кадров/сек (1536 spf)
Метод сжатия : С потерями
Размер потока : 216 Мбайт (8%)
Заголовок : ENG - DVD
Язык : English
Default : Нет
Forced : Нет
Текст #1
Идентификатор : 5
Формат : UTF-8
Идентификатор кодека : S_TEXT/UTF8
Идентификатор кодека/Информация : UTF-8 Plain Text
Продолжительность : 50 м.
Битрейт : 1 бит/сек
Count of elements : 13
Размер потока : 449 байт (0%)
Заголовок : Rus Sub - forced
Язык : Russian
Default : Нет
Forced : Нет
Текст #2
Идентификатор : 6
Формат : UTF-8
Идентификатор кодека : S_TEXT/UTF8
Идентификатор кодека/Информация : UTF-8 Plain Text
Продолжительность : 1 ч. 2 м.
Битрейт : 82 бит/сек
Count of elements : 793
Размер потока : 37,8 Кбайт (0%)
Заголовок : Rus Sub - full
Язык : Russian
Default : Нет
Forced : Нет
Текст #3
Идентификатор : 7
Формат : UTF-8
Идентификатор кодека : S_TEXT/UTF8
Идентификатор кодека/Информация : UTF-8 Plain Text
Продолжительность : 1 ч. 4 м.
Битрейт : 55 бит/сек
Count of elements : 966
Размер потока : 25,9 Кбайт (0%)
Заголовок : Eng Sub - full
Язык : English
Default : Нет
Forced : Нет
Текст #4
Идентификатор : 8
Формат : UTF-8
Идентификатор кодека : S_TEXT/UTF8
Идентификатор кодека/Информация : UTF-8 Plain Text
Продолжительность : 1 ч. 6 м.
Битрейт : 70 бит/сек
Count of elements : 1438
Размер потока : 34,5 Кбайт (0%)
Заголовок : Eng Sub - sdh
Язык : English
Default : Нет
Forced : Нет
Меню
00:00:00.000 : en:1. Main Title
00:00:48.000 : en:2. Belles on Ice
00:08:19.000 : en:3. Christmas: Impossible
00:27:10.000 : en:4. Christmas Maximus
00:33:10.000 : en:5. Donald's Gift
00:41:30.000 : en:6. Mickey's Dog-Gone Christmas
01:00:00.000 : en:7. End Credits
Показать сообщения:    

Текущее время: 24-Сен 22:12

Часовой пояс: UTC - 1


Вы не можете начинать темы
Вы не можете отвечать на сообщения
Вы не можете редактировать свои сообщения
Вы не можете удалять свои сообщения
Вы не можете голосовать в опросах
Вы не можете прикреплять файлы к сообщениям
Вы не можете скачивать файлы

!ВНИМАНИЕ!
Сайт не предоставляет электронные версии произведений, а занимается лишь коллекционированием и каталогизацией ссылок, присылаемых и публикуемых на форуме нашими читателями. Если вы являетесь правообладателем какого-либо представленного материала и не желаете, чтобы ссылка на него находилась в нашем каталоге, свяжитесь с нами, и мы незамедлительно удалим ее. Файлы для обмена на трекере предоставлены пользователями сайта, и администрация не несет ответственности за их содержание. Просьба не заливать файлы, защищенные авторскими правами, а также файлы нелегального содержания!