Ивановский Торрент трекер
Яндекс.Погода
 

[Цитировать]
HUNTER

-Миддлтон / At Middleton«You never know what you'll discover on your first day at college» Страна: США
Студия: CineSon Entertainment, Look at the Moon Productions, North by Northwest Entertainment
Жанр: мелодрама, комедия
Год выпуска: 2013
Продолжительность: 01:40:21
Перевод: Профессиональный (многоголосый закадровый) |R5|
Cубтитры: английские
Оригинальная аудиодорожка: английский
Режиссер: Адам Роджерс / Adam Rodgers
В ролях: Энди Гарсиа, Вера Фармига, Таисса Фармига, Спенсер Лофранко, Николас Браун, Том Скеррит, Питер Ригерт, Миряна Йокович, Стефен Борелло IV, Даниэлла Гарсиа-Лоридо, Сэкстон Джонсон, Шон Кук, Лоретта Андервуд, Кенни Паркс мл., Бриана Генри, Джои Грир, Тони Дуп, Кент Кимболл
Описание: Действие фильма происходит в университетском городке колледжа Миддлтон, куда приезжают родители и будущие студенты. Здесь встречаются Джордж и Эдит, которые привезли в колледж на ознакомительный тур своих детей-подростков. Дочь Эдит очень хочет учиться в таком престижном учебном заведении, как Миддлтон. В свою очередь, сын Джорджа отнюдь не приходит в восторг от перспективы учебы в колледже, который его отец считает столь дорогим во всех отношениях. Случайная встреча героев кинокартины «Миддлтон» начинается с конфликта, однако постепенно Эдит и Джордж находят общий язык. Оба женатые, они на время словно забывают о том, что осталось у них за плечами, и с упоением отдаются нахлынувшим на них чувствам…
- Сэмпл
Тип релиза: WEB-DL 1080p
Контейнер: MKV
Видео: 1908x1068р, 24.0fps, H264 High@L3.1, 4958 kbps
Аудио: Russian: 48 kHz, AC3 Dolby Digital, 3/2 (L,C,R,l,r) + LFE ch, ~384.00 kbps avg |R5|
Аудио: English: 48 kHz, AC3 Dolby Digital, 3/2 (L,C,R,l,r) + LFE ch, ~384.00 kbps avg |iTunes (US)|
Формат субтитров: softsub (SRT)

Media Info

Формат : Matroska
Версия формата : Version 4 / Version 2
Размер файла : 4,09 Гбайт
Продолжительность : 1 ч. 40 м.
Общий поток : 5835 Кбит/сек
Дата кодирования : UTC 2014-02-16 21:25:48
Программа кодирования : mkvmerge v6.2.0 ('Promised Land') built on Apr 28 2013 18:50:30
Библиотека кодирования : libebml v1.3.0 + libmatroska v1.4.0
Видео
Идентификатор : 1
Формат : AVC
Формат/Информация : Advanced Video Codec
Профиль формата : High@L4.0
Параметр CABAC формата : Да
Параметр ReFrames формата : 4 кадра
Идентификатор кодека : V_MPEG4/ISO/AVC
Продолжительность : 1 ч. 40 м.
Битрейт : 4951 Кбит/сек
Ширина : 1908 пикселей
Высота : 1068 пикселей
Соотношение сторон : 16:9
Режим частоты кадров : Постоянный
Частота кадров : 23,976 кадра/сек
Цветовое пространство : YUV
Субдискретизация насыщенности : 4:2:0
Битовая глубина : 8 бит
Тип развёртки : Прогрессивная
Бит/(Пиксели*Кадры) : 0.101
Размер потока : 3,47 Гбайт (85%)
Язык : English
Default : Да
Forced : Нет
Основные цвета : BT.709
Характеристики трансфера : BT.709
Коэффициенты матрицы : BT.709
Аудио #1
Идентификатор : 2
Формат : AC-3
Формат/Информация : Audio Coding 3
Расширение режима : CM (complete main)
Параметр Endianness формата : Big
Идентификатор кодека : A_AC3
Продолжительность : 1 ч. 40 м.
Вид битрейта : Постоянный
Битрейт : 384 Кбит/сек
Каналы : 6 каналов
Расположение каналов : Front: L C R, Side: L R, LFE
Частота : 48,0 КГц
Битовая глубина : 16 бит
Метод сжатия : С потерями
Размер потока : 276 Мбайт (7%)
Заголовок : Профессиональный (многоголосый, закадровый) |R5|
Язык : Russian
Default : Да
Forced : Нет
Аудио #2
Идентификатор : 3
Формат : AC-3
Формат/Информация : Audio Coding 3
Расширение режима : CM (complete main)
Параметр Endianness формата : Big
Идентификатор кодека : A_AC3
Продолжительность : 1 ч. 40 м.
Вид битрейта : Постоянный
Битрейт : 384 Кбит/сек
Каналы : 6 каналов
Расположение каналов : Front: L C R, Side: L R, LFE
Частота : 48,0 КГц
Битовая глубина : 16 бит
Метод сжатия : С потерями
Размер потока : 276 Мбайт (7%)
Заголовок : Original
Язык : English
Default : Нет
Forced : Нет
Текст
Идентификатор : 4
Формат : UTF-8
Идентификатор кодека : S_TEXT/UTF8
Идентификатор кодека/Информация : UTF-8 Plain Text
Язык : English
Default : Нет
Forced : Нет

-

Скриншоты



Показать сообщения:    

Текущее время: 15-Дек 08:17

Часовой пояс: UTC ± 0


Вы не можете начинать темы
Вы не можете отвечать на сообщения
Вы не можете редактировать свои сообщения
Вы не можете удалять свои сообщения
Вы не можете голосовать в опросах
Вы не можете прикреплять файлы к сообщениям
Вы не можете скачивать файлы

!ВНИМАНИЕ!
Сайт не предоставляет электронные версии произведений, а занимается лишь коллекционированием и каталогизацией ссылок, присылаемых и публикуемых на форуме нашими читателями. Если вы являетесь правообладателем какого-либо представленного материала и не желаете, чтобы ссылка на него находилась в нашем каталоге, свяжитесь с нами, и мы незамедлительно удалим ее. Файлы для обмена на трекере предоставлены пользователями сайта, и администрация не несет ответственности за их содержание. Просьба не заливать файлы, защищенные авторскими правами, а также файлы нелегального содержания!