Ивановский Торрент трекер
Яндекс.Погода
 

[Цитировать]
HUNTER

Меч завоевателя / Rosmunda e Alboino / Sword of The Conqueror- Страна: Италия
Жанр: историческая драма
Год выпуска: 1961
Продолжительность: 01:33:22-Перевод: Профессиональный (двухголосый закадровый) НТВ+
Cубтитры: нет
Оригинальная аудиодорожка: отсутствует-Режиссер: Карло Кампогаллиани / Carlo Campogalliani
В ролях: Джек Пэланс, Элеонора Росси Драго, Гай Мэдисон, Карло Д’Анджело, Эди Вессель, Андреа Босич, Иван Пэланс, Витторио Саниполи, Раф Бальдассарре, Гуидо Челано и другие- | Релиз: -Описание: Беспокоясь за безопасность своих границ, римляне натравливают друг на друга два племени варваров, - гепидов и лангобардов, провоцируя войну между ними. Одержав несколько побед, вождь лангобардов предлагает своим соперникам перемирие, чтобы они могли сообща противостоять римлянам. В качестве условия, он требует отдать ему в жены дочь вождя гепидов Розамунду, которая тайно обручена с одним из лучших воинов своего племени…-Семпл: http://sendfile.su/1213871-Тип релиза: HDTV 1080i
Контейнер: TS
Видео: 1920x1080 (16:9), 25.000 fps, AVC, ~6696 Kbps, 0.129 bits/pixel
Аудио 1: Русский, 48.0 KHz, MPEG-1 Audio layer 2, 2 ch, 192 kbps
Аудио 2: English, 48.0 KHz, MPEG-1 Audio layer 2, 2 ch, 192 kbps

MediaInfo

GeneralID : 1 (0x1)Complete name : Y:\Recordings\Movie\Rosmunda e Alboino 1961 MGMHD DVO NTV+.rus.eng.tsFormat : MPEG-TSFile size : 4.86 GiBDuration : 1h 33mnOverall bit rate mode : VariableOverall bit rate : 7 453 KbpsMaximum Overall bit rate : 35.5 Mbps
VideoID : 4113 (0x1011)Menu ID : 1 (0x1)Format : AVCFormat/Info : Advanced Video CodecFormat profile : Main@L4Format settings, CABAC : YesFormat settings, ReFrames : 4 framesCodec ID : 27Duration : 1h 33mnBit rate mode : VariableBit rate : 6 696 KbpsMaximum bit rate : 40.0 MbpsWidth : 1 920 pixelsHeight : 1 080 pixelsDisplay aspect ratio : 16:9Frame rate : 25.000 fpsStandard : ComponentColor space : YUVChroma subsampling : 4:2:0Bit depth : 8 bitsScan type : InterlacedScan type, store method : Separated fieldsScan order : Top Field FirstBits/(Pixel*Frame) : 0.129Stream size : 4.37 GiB (90%)Color range : Limited
Audio #1ID : 4352 (0x1100)Menu ID : 1 (0x1)Format : MPEG AudioFormat version : Version 1Format profile : Layer 2Codec ID : 4Duration : 1h 33mnBit rate mode : ConstantBit rate : 192 KbpsChannel(s) : 2 channelsSampling rate : 48.0 KHzCompression mode : LossyStream size : 128 MiB (3%)Language : Russian
Audio #2ID : 4353 (0x1101)Menu ID : 1 (0x1)Format : MPEG AudioFormat version : Version 1Format profile : Layer 2Codec ID : 4Duration : 1h 33mnBit rate mode : ConstantBit rate : 192 KbpsChannel(s) : 2 channelsSampling rate : 48.0 KHzCompression mode : LossyStream size : 128 MiB (3%)Language : English

Скриншоты



Показать сообщения:    

Текущее время: 15-Дек 02:50

Часовой пояс: UTC ± 0


Вы не можете начинать темы
Вы не можете отвечать на сообщения
Вы не можете редактировать свои сообщения
Вы не можете удалять свои сообщения
Вы не можете голосовать в опросах
Вы не можете прикреплять файлы к сообщениям
Вы не можете скачивать файлы

!ВНИМАНИЕ!
Сайт не предоставляет электронные версии произведений, а занимается лишь коллекционированием и каталогизацией ссылок, присылаемых и публикуемых на форуме нашими читателями. Если вы являетесь правообладателем какого-либо представленного материала и не желаете, чтобы ссылка на него находилась в нашем каталоге, свяжитесь с нами, и мы незамедлительно удалим ее. Файлы для обмена на трекере предоставлены пользователями сайта, и администрация не несет ответственности за их содержание. Просьба не заливать файлы, защищенные авторскими правами, а также файлы нелегального содержания!