Ивановский Торрент трекер
Яндекс.Погода
 

[Цитировать]
HUNTER

-Методика Оксисайз-
Год выпуска: 2009
Страна: Россия
Сайт производителя: отсутствуeт
Тематика: фитнес
Тип материала: Обучающее видео
Продолжительность: 3 х 00:14:23 + 00:02:22
Автор: Марина Корпан
Язык: Русский
Субтитры: отсутствуют-Описание: Оксисайз - обьяснение дыхания Мариной Корпан (на русском языке)
Оксисайз – уникальный комплекс упражнений для похудания, он эффективен благодаяря специальной дыхательной гимнастике: кровь активно насыщается кислородом, а физические упражнения способствуют поступлению кислорода к проблемным зонам. Результат - значительное уменьшение жировых тканей. Плюс оксисайз в том, что на него достаточно тратить всего 20 минут в день. При этом за неделю вы можете уменьшить объем талии на 10 см. Продемонстрирует эту систему похудения наглядно в студии программы «Доброе утро» тренер по бодифлексу и системе оксисайз – Марина Корпан.
-Качество: DVDRip
Формат: AVI
Видео кодек: DivX
Аудио кодек: MP3
1-2 часть
Видео: 480x360 (1.33:1), 25 fps, DivX Codec 5.x or 6.x ~602 kbps avg, 0.14 bit/pixel
Аудио: 22.050 kHz, MPEG Layer 3, 2 ch, ~96.00 kbps avg
3-4 часть
Видео: 640x480 (1.33:1), 25 fps, DivX Codec 5.x or 6.x ~633 kbps avg, 0.08 bit/pixel
Аудио: 22.050 kHz, MPEG Layer 3, 2 ch, ~96.00 kbps avg-

Доп. информация

Методика ОКСИСАЙЗ помогает укрепить здоровье, держать организм в тонусе. Все упражнения основаны на дыхании. Это нужно для того, чтобы клетки насыщались кислородом. Именно поэтому польза оксисайза так велика. Даже небольшие по времени упражнения принесут ощутимый результат. v
Почему методика оксисайза так популярна? Правильное дыхание помогает насыщать клетки тела кислородом, а он, в свою очередь, сжигает лишние жиры. В итоге, без изнурительных тренировок и мучительных диет можно добиться многого. Методика оксисайза уже за 10 занятий поможет уменьшить объемы тела до 47 см (опыт нашего центра. измерения проводились по пяти точкам — верхняя часть живота, талия, нижняя часть живота, бедра и ноги. потеря в области талии до 20 см. )
Оксисайз сжигает каллории за рекордно короткое время по сравнению с традиционными программами потери веса и убирает лишние килограммы и сантиметры. Всего 15 минут ежедневных упражнений требуется для того, чтобы получить долгожданные результаты. Один из самых главных аспектов Оксисайза заключается в том, что заниматься можно и дома, и в гостиничном номере, и в офисе, и даже за рулем собственного автомобиля. Он также безопасен для людей всех возрастов и любого уровня физической подготовки. Научные исследования подтверждают эффективность Oxycise.

MediaInfo

Код: copyText_writeLink('this.parentNode.parentNode.nextSibling.nextSibling'); Общее
Полное имя : D:\обуч\kopran\kopran_e01_[tfile.ru].AVI
Формат : AVI
Формат/Информация : Audio Video Interleave
Размер файла : 73,2 Мбайт
Продолжительность : 14 м.
Общий поток : 711 Кбит/сек
Название фильма : Часть вторая.flv
Режиссёр : created.with.SUPER(C).v2010.bld.38
Программа кодирования : SUPER(C)
Видео
Идентификатор : 0
Формат : MPEG-4 Visual
Профиль формата : Simple@L1
Параметр BVOP формата : Нет
Параметр QPel формата : Нет
Параметр GMC формата : Без точки перехода
Параметр матрицы формата : Default (H.263)
Идентификатор кодека : DX50
Идентификатор кодека/Подсказка : DivX 5
Продолжительность : 14 м.
Битрейт : 603 Кбит/сек
Ширина : 480 пикселей
Высота : 360 пикселей
Соотношение сторон : 4:3
Частота кадров : 25,000 кадров/сек
Цветовое пространство : YUV
Субдискретизация насыщенности : 4:2:0
Битовая глубина : 8 бит
Тип развёртки : Прогрессивная
Метод сжатия : С потерями
Бит/(Пиксели*Кадры) : 0.140
Размер потока : 62,1 Мбайт (85%)
Библиотека кодирования : SUPER(C)
Аудио
Идентификатор : 1
Формат : MPEG Audio
Версия формата : Version 2
Профиль формата : Layer 3
Режим : Joint stereo
Расширение режима : MS Stereo
Идентификатор кодека : 55
Идентификатор кодека/Подсказка : MP3
Продолжительность : 14 м.
Вид битрейта : Постоянный
Битрейт : 96,0 Кбит/сек
Каналы : 2 канала
Частота : 22,05 КГц
Метод сжатия : С потерями
Размер потока : 9,89 Мбайт (13%)
Выравнивание : Соединение по промежуткам
Продолжительность промежутка : 26 мс. (0,65 видеокадр)
Библиотека кодирования : LAME3.98

Скриншоты

-
Показать сообщения:    

Текущее время: 22-Окт 01:41

Часовой пояс: UTC - 1


Вы не можете начинать темы
Вы не можете отвечать на сообщения
Вы не можете редактировать свои сообщения
Вы не можете удалять свои сообщения
Вы не можете голосовать в опросах
Вы не можете прикреплять файлы к сообщениям
Вы не можете скачивать файлы

!ВНИМАНИЕ!
Сайт не предоставляет электронные версии произведений, а занимается лишь коллекционированием и каталогизацией ссылок, присылаемых и публикуемых на форуме нашими читателями. Если вы являетесь правообладателем какого-либо представленного материала и не желаете, чтобы ссылка на него находилась в нашем каталоге, свяжитесь с нами, и мы незамедлительно удалим ее. Файлы для обмена на трекере предоставлены пользователями сайта, и администрация не несет ответственности за их содержание. Просьба не заливать файлы, защищенные авторскими правами, а также файлы нелегального содержания!