Важное объявление!
У Нас Все раздачи мультитрекерные, при нуле пиров в релизах, можете смело вставать на закачку!
 
Автор Сообщение

HUNTER

Стаж:
4 года 10 месяцев
Сообщений:
65542

Репутация: 101

[+] [-]
Вне форума [Профиль] [ЛС]

Металлопокалипсис: Реквием Роковой Звезды | Metalocalypse: The Doomstar Requiem-
Страна: США
Студия: Titmouse, Inc., Williams Street
Жанр: Дэт-Метал, Чёрная Комедия, Сатира
Продолжительность: 00:46:36
Год выпуска: 2013
Перевод: Двухголосый закадровый { Булат Corvin Данилов & Мария Трубникова }
Русские субтитры: SwordOfDawn
Режиссёр: Брендон Смолл, Марк Брукс / Brendon Small, Mark Brooks
Роли озвучивали: Brendon Small, Mike Keneally, Malcolm McDowell, George "Corpsegrinder" Fisher, Raya Yarbrough, Mark Hamill, Victor Brandt, Jack Black, Ulrich Wild-Описание: Эпичная 46-минутная метал-опера, о самой брутальной дэт-метал группе Dethklok.
Повествует о стараниях группы, найти и спасти своего бессменного ритм-гитариста, Токи Вортуза.-Доп. информация: Русская дорожка получена путём наложения чистых голосов на центральный канал оригинального 6ch трека.
Оригинальный 6ch звук взят с HDTV трансляции мультфильма на канале [adult swim]-Релиз группы: -Качество: WEB-DL 720p
Формат: MKV
Видео: MPEG-4 AVC, 1280x720, 23.976 fps, 3996 kbps
Аудио 1: Русский, AC3 Dolby Digital, 6 ch, 448 kbps, 48 kHz
Аудио 2: Английский, AC3 Dolby Digital, 6 ch, 448 kbps, 48 kHz
Субтитры: Русские, Английские | Advanced Sub Station Alpha
Сэмпл
Все раздачи мультсериала
I сезон DVDRip-AVC / II сезон WEB-DLRip / III-IV сезон BDRip | BDRip 720p
IV сезон BDRip 1080p / Metalocalypse: The Doomstar Requiem WEB-DLRip | WEB-DL 1080p

Скриншоты


Пример субтитров


10
00:01:53,530 --> 00:01:57,320
Я помню времена, когда эти пятеро были
11
00:01:57,320 --> 00:02:03,540
просто группой,
но это было вчера.
12
00:02:03,540 --> 00:02:07,710
Так все невинно в этой церкви
и все эти пророчества,
13
00:02:08,020 --> 00:02:13,050
но затем они забрали его!
14
00:02:13,350 --> 00:02:14,890
Времена изменились:
15
00:02:14,890 --> 00:02:17,600
воздух пропитался вкусом металла.
16
00:02:17,610 --> 00:02:19,890
Киты, они предупреждают нас.
17
00:02:19,890 --> 00:02:22,510
Они продолжают петь и повторять:
18
00:02:22,510 --> 00:02:31,900
Один из нас должен умереть!
Один из нас должен умереть!
19
00:02:31,900 --> 00:02:36,790
Преклонись перед Звездой Судьбы.
Часы продолжают свой ход
20
00:02:36,790 --> 00:02:38,960
Жизни на земле грозит затмение...
21
00:02:38,960 --> 00:02:46,530
от Металлопокалипсиса...
Один из вас должен умереть!
22
00:02:46,530 --> 00:02:54,220
Один из вас должен умереть!
DethKlok должны
23
00:02:54,220 --> 00:03:00,730
воссоединиться!
Зло должно быть побеждено!
24
00:03:00,730 --> 00:03:10,440
Им нельзя быть безразличными,
Они должны научиться быть героями
25
00:03:10,440 --> 00:03:20,580
Написать песню, которая станет
нашим спасением...
26
00:03:41,630 --> 00:03:45,260
Добро пожаловать в вашу зону отдыха!
27
00:03:45,260 --> 00:03:52,400
Прошу наслаждайтесь своим пребыванием!
Я буду послом
28
00:03:52,400 --> 00:03:57,790
горя и гниения!
Я заберу их!
29
00:03:57,790 --> 00:04:01,460
Я сокрушу их!
Я раздеру их плоть и
30
00:04:01,460 --> 00:04:05,160
уничтожу их!
Ищу мести...
31
00:04:05,160 --> 00:04:08,630
для моего брата.
Я не буду знать отдыха, пока
32
00:04:08,630 --> 00:04:14,620
не получу ее.
Я не плохой человек.
33
00:04:14,620 --> 00:04:17,890
Я просто тот, кто наполнен болью.

MediaInfo


Общее
Уникальный идентификатор : 197865630093301617518163616043472172776 (0x94DB88C1149804B79D37D5710FAEB6E8)
Полное имя : D:\Раздачи\Metalocalypse.The.Doomstar.Requiem.H264.WEB-DL.720p-Zuich32.mkv
Формат : Matroska
Версия формата : Version 4 / Version 2
Размер файла : 1,62 Гбайт
Продолжительность : 46 м.
Общий поток : 4991 Кбит/сек
Дата кодирования : UTC 2015-06-23 23:24:29
Программа кодирования : mkvmerge v7.9.0 ('Birds') 64bit
Библиотека кодирования : libebml v1.3.1 + libmatroska v1.4.2
Видео
Идентификатор : 1
Формат : AVC
Формат/Информация : Advanced Video Codec
Профиль формата : High@L3.1
Параметр CABAC формата : Нет
Параметр ReFrames формата : 2 кадра
Идентификатор кодека : V_MPEG4/ISO/AVC
Продолжительность : 46 м.
Битрейт : 3996 Кбит/сек
Ширина : 1280 пикселей
Высота : 720 пикселей
Соотношение сторон : 16:9
Режим частоты кадров : Постоянный
Частота кадров : 23,976 кадра/сек
Цветовое пространство : YUV
Субдискретизация насыщенности : 4:2:0
Битовая глубина : 8 бит
Тип развёртки : Прогрессивная
Бит/(Пиксели*Кадры) : 0.181
Размер потока : 1,30 Гбайт (80%)
Язык : English
Default : Да
Forced : Нет
Основные цвета : BT.709
Характеристики трансфера : BT.709
Коэффициенты матрицы : BT.709
colour_range : Limited
Аудио #1
Идентификатор : 2
Формат : AC-3
Формат/Информация : Audio Coding 3
Расширение режима : CM (complete main)
Параметр Endianness формата : Big
Идентификатор кодека : A_AC3
Продолжительность : 46 м.
Вид битрейта : Постоянный
Битрейт : 448 Кбит/сек
Каналы : 6 каналов
Расположение каналов : Front: L C R, Side: L R, LFE
Частота : 48,0 КГц
Битовая глубина : 16 бит
Метод сжатия : С потерями
Размер потока : 149 Мбайт (9%)
Заголовок : DVO [Corvin] - AC3 Dolby Digital, 6ch, 448 kbps, 48 kHz
Язык : Russian
Default : Да
Forced : Нет
Аудио #2
Идентификатор : 3
Формат : AC-3
Формат/Информация : Audio Coding 3
Расширение режима : CM (complete main)
Параметр Endianness формата : Big
Идентификатор кодека : A_AC3
Продолжительность : 46 м.
Вид битрейта : Постоянный
Битрейт : 448 Кбит/сек
Каналы : 6 каналов
Расположение каналов : Front: L C R, Side: L R, LFE
Частота : 48,0 КГц
Битовая глубина : 16 бит
Метод сжатия : С потерями
Размер потока : 149 Мбайт (9%)
Заголовок : Original - AC3 Dolby Digital, 6ch, 448 kbps, 48 kHz
Язык : English
Default : Нет
Forced : Нет
Текст #1
Идентификатор : 4
Формат : ASS
Идентификатор кодека : S_TEXT/ASS
Идентификатор кодека/Информация : Advanced Sub Station Alpha
Метод сжатия : Без потерь
Заголовок : Металлопокалипсис: Реквием Роковой Звезды
Язык : Russian
Default : Да
Forced : Нет
Текст #2
Идентификатор : 5
Формат : ASS
Идентификатор кодека : S_TEXT/ASS
Идентификатор кодека/Информация : Advanced Sub Station Alpha
Метод сжатия : Без потерь
Заголовок : Metalocalypse: The Doomstar Requiem
Язык : English
Default : Нет
Forced : Нет

_________________
Показать сообщения:    

Текущее время: Сегодня 15:36

Часовой пояс: GMT



Вы не можете начинать темы
Вы не можете отвечать на сообщения
Вы не можете редактировать свои сообщения
Вы не можете удалять свои сообщения
Вы не можете голосовать в опросах
Вы не можете прикреплять файлы к сообщениям
Вы не можете скачивать файлы