Важное объявление!
У Нас Все раздачи мультитрекерные, при нуле пиров в релизах, можете смело вставать на закачку!
 
Автор Сообщение

HUNTER

Стаж:
4 года 9 месяцев
Сообщений:
65021

Репутация: 101

[+] [-]
Вне форума [Профиль] [ЛС]

Месье составит вам компанию / Компанейский господин / Un monsieur de compagnie-
Год выпуска: 1964
Страна: Италия, Франция
Жанр: комедия
Продолжительность: 01:31:59
Перевод: Субтитры
Оригинальная аудиодорожка: Французская
Cубтитры: Русские (Антон Каптелов), французские (на английскую речь, полные для слабослышащих)
Режиссер: Филипп де Брока / Philippe de Broca
В ролях: Жан-Пьер Кассель, Ирина Демик, Катрин Денёв, Жан-Клод Бриали, Анни Жирардо, Валери Лагранж, Сандра Мило, Адольфо Чели, Марсель Далио, Андре Люге, Жан-Пьер Марьель-Описание:
Антуан — молодой человек, проживший всю свою жизнь под опекой деда, считавшего, что лень является не пороком, а величайшей благодетелью. В этом духе старик воспитал и своего внука. После смерти деда Антуан узнает, что остался без гроша в кармане, но не унывает и начинает колесить по Европе, составляя компанию различным людям и живя за их счет.-За субтитры спасибо dimmm2v.
| IMDb | Sample-Качество: BDRip 720p (KESH)
Контейнер: MKV
Видео: x264, 1194x720 (1.66:1), 24 fps, 6637 kbps
Аудио: Французский DTS 2.0, 48 kHz, 768 kbps
Формат субтитров: softsub (SRT)

Скриншоты



MI

General
Unique ID : 184873531058915582407136879688605387023 (0x8B1558D1002AFA8182509B710306490F)
Complete name : Un monsieur de compagnie AKA I Was A Male Sex Bomb 1964 720p BluRay DTS2.0 x264-KESH.mkv
Format : Matroska
Format version : Version 2
File size : 4.78 GiB
Duration : 1h 31mn
Overall bit rate : 7 438 Kbps
Movie name : Un monsieur de compagnie / Месье составит вам компанию (1964) – RuTracker
Encoded date : UTC 2015-11-27 22:02:28
Writing application : mkvmerge v8.3.0 ('Over the Horizon') 64bit
Writing library : libebml v1.3.1 + libmatroska v1.4.2
Attachements : cover.jpg
Video
ID : 1
Format : AVC
Format/Info : Advanced Video Codec
Format profile : High@L4.1
Format settings, CABAC : Yes
Format settings, ReFrames : 8 frames
Codec ID : V_MPEG4/ISO/AVC
Duration : 1h 31mn
Bit rate : 6 522 Kbps
Width : 1 194 pixels
Height : 720 pixels
Display aspect ratio : 5:3
Frame rate mode : Constant
Frame rate : 24.000 fps
Color space : YUV
Chroma subsampling : 4:2:0
Bit depth : 8 bits
Scan type : Progressive
Bits/(Pixel*Frame) : 0.316
Stream size : 4.19 GiB (88%)
Title : Un monsieur de compagnie AKA I Was A Male Sex Bomb 1964 720p BluRay AAC2.0 x264-KESH
Writing library : x264 core 142 r2479 dd79a61
Encoding settings : cabac=1 / ref=9 / deblock=1:-3:-3 / analyse=0x3:0x133 / me=tesa / subme=11 / psy=1 / psy_rd=1.00:0.05 / mixed_ref=1 / me_range=32 / chroma_me=1 / trellis=2 / 8x8dct=1 / cqm=0 / deadzone=21,11 / fast_pskip=0 / chroma_qp_offset=-3 / threads=12 / lookahead_threads=3 / sliced_threads=0 / nr=0 / decimate=1 / interlaced=0 / bluray_compat=0 / constrained_intra=0 / bframes=16 / b_pyramid=1 / b_adapt=2 / b_bias=0 / direct=3 / weightb=1 / open_gop=0 / weightp=2 / keyint=240 / keyint_min=24 / scenecut=40 / intra_refresh=0 / rc_lookahead=60 / rc=crf / mbtree=1 / crf=18.0 / qcomp=0.60 / qpmin=0 / qpmax=69 / qpstep=4 / vbv_maxrate=62500 / vbv_bufsize=78125 / crf_max=0.0 / nal_hrd=none / filler=0 / ip_ratio=1.40 / aq=1:0.80
Language : French
Default : Yes
Forced : No
Color range : Limited
Color primaries : BT.709
Transfer characteristics : BT.709
Matrix coefficients : BT.709
Audio
ID : 2
Format : DTS
Format/Info : Digital Theater Systems
Mode : 16
Format settings, Endianness : Big
Codec ID : A_DTS
Duration : 1h 31mn
Bit rate mode : Constant
Bit rate : 768 Kbps
Channel(s) : 2 channels
Channel positions : Front: L R
Sampling rate : 48.0 KHz
Bit depth : 24 bits
Compression mode : Lossy
Stream size : 505 MiB (10%)
Language : French
Default : Yes
Forced : No
Text #1
ID : 3
Format : UTF-8
Codec ID : S_TEXT/UTF8
Codec ID/Info : UTF-8 Plain Text
Title : Антон Каптелов
Language : Russian
Default : Yes
Forced : No
Text #2
ID : 4
Format : UTF-8
Codec ID : S_TEXT/UTF8
Codec ID/Info : UTF-8 Plain Text
Title : forced
Language : French
Default : No
Forced : No
Text #3
ID : 5
Format : UTF-8
Codec ID : S_TEXT/UTF8
Codec ID/Info : UTF-8 Plain Text
Title : SDH
Language : French
Default : No
Forced : No
Text #4
ID : 6
Format : PGS
Codec ID : S_HDMV/PGS
Codec ID/Info : Picture based subtitle format used on BDs/HD-DVDs
Title : PSDH
Language : French
Default : No
Forced : No
Menu
00:00:00.000 : :Chapter 1
00:06:54.166 : :Chapter 2
00:13:06.708 : :Chapter 3
00:25:17.333 : :Chapter 4
00:36:54.291 : :Chapter 5
00:45:29.583 : :Chapter 6
00:52:37.875 : :Chapter 7
01:01:03.666 : :Chapter 8
01:08:02.583 : :Chapter 9
01:14:32.083 : :Chapter 10
01:20:06.125 : :Chapter 11
01:26:46.958 : :Chapter 12

_________________
Показать сообщения:    

Текущее время: Сегодня 10:49

Часовой пояс: GMT



Вы не можете начинать темы
Вы не можете отвечать на сообщения
Вы не можете редактировать свои сообщения
Вы не можете удалять свои сообщения
Вы не можете голосовать в опросах
Вы не можете прикреплять файлы к сообщениям
Вы не можете скачивать файлы