Важное объявление!
У Нас Все раздачи мультитрекерные, при нуле пиров в релизах, можете смело вставать на закачку!
 
Автор Сообщение

HUNTER

Стаж:
4 года 8 месяцев
Сообщений:
62044

Репутация: 101

[+] [-]
Вне форума [Профиль] [ЛС]

Месть в доме Ашеров / Невроз: Падение дома Ашера / Revenge in the House of Usher / Neurosis The Fall of House of Asher
Страна: Испания, Франция
Студия: Elite Films
Жанр: ужасы, триллер
Год выпуска: 1982
Продолжительность: 01:29:11
Перевод: Одноголосый закадровый Horror Maker
Cубтитры: английские
Оригинальная аудиодорожка: французский
Режиссер: Хесус (Джесс) Франко / Jesus Franco
В ролях: Ховард Вернон, Антонио Майанс, Лина Ромей, Даниэль Уайт
Описание: Последний представитель рода Ашеров по имени Эрик живет в одиночестве в большом старом особняке на скале. Эрика преследует семейное проклятие, которое переполняет его воспоминаниями, сводящими с ума. Однажды Эрик решает пригласить у себе в гости своего бывшего студента Алана Харкера. Эрик рассказывает гостю, что вот уже много лет он пытается вылечить свою находящуюся в кататоническом состоянии дочь Мелиссу, используя, мягко говоря, не совсем традиционные методы лечения, от которых Харкер приходит в ужас…
Традиционный фильм для Джесуса Франко с кучей крови и обнаженной женской натуры.
Доп. информация: Русская звуковая дорожка взята с видеодемонс (Не мной) большое спасибо e-ball, adultshara, King Diamond , muzzon , lotasfan, PanSabotage, Sss,Arias, Zer0
При пересборе двд были использованы программы:
PgcDemux - разделение компонентов диска на файлы
Muxman - мультиплексирование и авторинг DVD
VobBlanker - реавторинг DVD

Скрин завершения проекта

Бонусы: Трейлер
Сэмпл: http://sendfile.su/1075355
Тип релиза: DVD5 (Custom)
Контейнер: DVD-Video
Видео: NTSC 16:9 (720x480) VBR Auto Pan&Scan
Аудио: Russian (Dolby AC3, 192 Кбит/сек, 2 ch)
Аудио 2: English (Dolby AC3, 192 Кбит/сек, 1 ch)
Аудио 3: Francais (Dolby AC3, 192 Кбит/сек, 1 ch)
Формат субтитров: softsub (SRT)

DVDInfo

Size: 3.91 Gb ( 4 100 990 KBytes ) - DVD-5
Enabled regions: 1, 2, 3, 4, 5, 6, 7, 8
VTS_01 :
Play Length: 01:29:11
Video: NTSC 16:9 (720x480) VBR, Auto Pan&Scan
Audio:
Russian (Dolby AC3, 2 ch)
English (Dolby AC3, 1 ch)
Francais (Dolby AC3, 1 ch)
Subtitles:
English
English
VTS_02 :
Play Length: 00:00:35
Video: NTSC 4:3 (720x480) VBR
Audio:
English (Dolby AC3, 1 ch)
Subtitles:
English
VTS_03 :
Play Length: 00:01:25
Video: NTSC 16:9 (720x480) VBR, Auto Pan&Scan
Audio:
English (Dolby AC3, 1 ch)
Menu Video:
NTSC 4:3 (720x480) VBR
Menu English Language Unit :
Root Menu

MediaInfo

Общее
Полное имя : J:\Revenge in the House of Usher_1982\VIDEO_TS\VTS_01_1.VOB
Формат : MPEG-PS
Размер файла : 1024 Мбайт
Продолжительность : 23 м.
Режим общего битрейта : Переменный
Общий поток : 5975 Кбит/сек
Видео
Идентификатор : 224 (0xE0)
Формат : MPEG Video
Версия формата : Version 2
Профиль формата : Main@Main
Параметр BVOP формата : Да
Параметр матрицы формата : Выборочная
Параметр GOP формата : M=3, N=15
Продолжительность : 23 м.
Вид битрейта : Переменный
Битрейт : 5280 Кбит/сек
Максимальный битрейт : 9000 Кбит/сек
Ширина : 720 пикселей
Высота : 480 пикселей
Соотношение сторон : 16:9
Частота кадров : 29,970 кадров/сек
Стандарт вещания : NTSC
Цветовое пространство : YUV
Субдискретизация насыщенности : 4:2:0
Битовая глубина : 8 бит
Тип развёртки : Чересстрочная
Порядок развёртки : Верхнее поле первое
Метод сжатия : С потерями
Бит/(Пиксели*Кадры) : 0.510
Размер потока : 905 Мбайт (88%)
Аудио #1
Идентификатор : 189 (0xBD)-128 (0x80)
Формат : AC-3
Формат/Информация : Audio Coding 3
Расширение режима : CM (complete main)
Параметр Endianness формата : Big
Режим смешивания : DVD-Video
Продолжительность : 23 м.
Вид битрейта : Постоянный
Битрейт : 192 Кбит/сек
Каналы : 2 канала
Расположение каналов : Front: L R
Частота : 48,0 КГц
Битовая глубина : 16 бит
Метод сжатия : С потерями
Задержка видео : -66 мс.
Размер потока : 32,9 Мбайт (3%)
Аудио #2
Идентификатор : 189 (0xBD)-129 (0x81)
Формат : AC-3
Формат/Информация : Audio Coding 3
Расширение режима : CM (complete main)
Параметр Endianness формата : Big
Режим смешивания : DVD-Video
Продолжительность : 23 м.
Вид битрейта : Постоянный
Битрейт : 192 Кбит/сек
Каналы : 1 канал
Расположение каналов : Front: C
Частота : 48,0 КГц
Битовая глубина : 16 бит
Метод сжатия : С потерями
Задержка видео : -66 мс.
Размер потока : 32,9 Мбайт (3%)
Аудио #3
Идентификатор : 189 (0xBD)-130 (0x82)
Формат : AC-3
Формат/Информация : Audio Coding 3
Расширение режима : CM (complete main)
Параметр Endianness формата : Big
Режим смешивания : DVD-Video
Продолжительность : 23 м.
Вид битрейта : Постоянный
Битрейт : 192 Кбит/сек
Каналы : 1 канал
Расположение каналов : Front: C
Частота : 48,0 КГц
Битовая глубина : 16 бит
Метод сжатия : С потерями
Задержка видео : -66 мс.
Размер потока : 32,9 Мбайт (3%)
Текст #1
Идентификатор : 189 (0xBD)-32 (0x20)
Формат : RLE
Формат/Информация : Run-length encoding
Режим смешивания : DVD-Video
Задержка видео : -66 мс.
Текст #2
Идентификатор : 189 (0xBD)-33 (0x21)
Формат : RLE
Формат/Информация : Run-length encoding
Режим смешивания : DVD-Video
Задержка видео : -66 мс.
Меню

Постеры

Скриншоты меню


_________________
Показать сообщения:    

Текущее время: Сегодня 07:40

Часовой пояс: GMT



Вы не можете начинать темы
Вы не можете отвечать на сообщения
Вы не можете редактировать свои сообщения
Вы не можете удалять свои сообщения
Вы не можете голосовать в опросах
Вы не можете прикреплять файлы к сообщениям
Вы не можете скачивать файлы
Наши партнеры: интернет магазин Ивановского трикотажа textilla.ru