Важное объявление!
У Нас Все раздачи мультитрекерные, при нуле пиров в релизах, можете смело вставать на закачку!
 
Автор Сообщение

димитри37

Стаж:
3 года 11 месяцев
Сообщений:
1236

Репутация: 127

[+] [-]
Вне форума [Профиль] [ЛС]

Место под соснами /The Place Beyond the Pines
Страна: США
Жанр: драма, криминал
Год выпуска: 2012
Продолжительность: 02:20:13
Перевод#1: Профессиональный (полное дублирование)
Оригинальная аудиодорожка: английский
Cубтитры: русские
Режиссер: Дерек Сиенфрэнс / Derek Cianfrance
В ролях Райан Гослинг, Рэй Лиотта, Ева Мендес, Брэдли Купер, Бен Мендельсон, Роуз Бирн, Махершалалхашбаз Али, Брюс Гринвуд, Харрис Юлин, Крэйг Ван Хук
Описание Профессиональный мотогонщик Люк вынужден грабить банки, чтобы содержать новорожденного сына. Столкновение с полицейским приводит к трагической развязке, но спустя много лет история получает продолжение из-за повзрослевшего сына Люка, который оказывается в одном классе с сыном убийцы своего отца…

Качество видео: BDRip
Исходное видео: The.Place.Beyond.the.Pines.2012.1080p.RUS.Blu-ray.AVC.DTS-HD.MA.5.1
Контейнер: MKV
Видео: AVC, 912x384 (2,40:1), 2154 kbps, 23.976 fps, quality: 0.256
Аудио:AC-3, 384 kbps, Dolby Digital, 3/2 (L,C,R,l,r) + LFE ch, 48 KHz |Дубляж|
Аудио: AC-3, 384 kbps, Dolby Digital, 3/2 (L,C,R,l,r) + LFE ch, 48 KHz |Оригинал|
Формат субтитров:softsub (SRT)

Медиоинфо

x264 [info]: frame I:1063 Avg QP:15.58 size: 62085
x264 [info]: frame P:45102 Avg QP:18.78 size: 22810
x264 [info]: frame B:155755 Avg QP:20.68 size: 7515
x264 [info]: consecutive B-frames: 2.5% 4.5% 9.1% 15.3% 14.9% 37.2% 6.1% 1.8% 5.5% 2.9%
x264 [info]: mb I I16..4: 10.4% 65.3% 24.3%
x264 [info]: mb P I16..4: 0.9% 10.1% 1.5% P16..4: 30.5% 36.2% 13.3% 2.2% 0.3% skip: 5.1%
x264 [info]: mb B I16..4: 0.1% 1.7% 0.1% B16..8: 38.4% 20.5% 3.7% direct: 6.5% skip:28.9% L0:44.9% L1:45.5% BI: 9.6%
x264 [info]: 8x8 transform intra:80.5% inter:60.5%
x264 [info]: direct mvs spatial:97.1% temporal:2.9%
x264 [info]: coded y,uvDC,uvAC intra: 87.8% 77.8% 53.3% inter: 33.9% 21.5% 3.5%
x264 [info]: i16 v,h,dc,p: 45% 17% 10% 27%
x264 [info]: i8 v,h,dc,ddl,ddr,vr,hd,vl,hu: 8% 8% 10% 10% 14% 12% 14% 11% 14%
x264 [info]: i4 v,h,dc,ddl,ddr,vr,hd,vl,hu: 10% 10% 7% 8% 14% 13% 13% 11% 13%
x264 [info]: i8c dc,h,v,p: 40% 28% 18% 15%
x264 [info]: Weighted P-Frames: Y:3.8% UV:1.8%
x264 [info]: ref P L0: 40.6% 10.2% 17.4% 6.1% 5.8% 3.8% 3.9% 1.9% 2.0% 1.4% 1.6% 1.2% 1.3% 1.0% 1.2% 0.7%
x264 [info]: ref B L0: 67.1% 12.4% 6.2% 3.3% 2.4% 2.0% 1.6% 1.0% 0.8% 0.8% 0.7% 0.6% 0.6% 0.4% 0.2%
x264 [info]: ref B L1: 91.8% 8.2%
x264 [info]: kb/s:2153.91

x264 [total]: encoded 201920 frames, 1.13 fps, 2153.91 kb/s
Формат : Matroska
Версия формата : Version 2
Размер файла : 2,82 Гбайт
Продолжительность : 2 ч. 20 м.
Общий поток : 2880 Кбит/сек
Название фильма : The Place Beyond the Pines
Дата кодирования : UTC 2013-07-12 20:38:11
Программа кодирования : mkvmerge v5.5.0 ('Healer') built on Apr 24 2012 23:47:03
Библиотека кодирования : libebml v1.2.3 + libmatroska v1.3.0
Видео
Идентификатор : 1
Формат : AVC
Формат/Информация : Advanced Video Codec
Профиль формата : High@L4.1
Параметр CABAC формата : Да
Параметр ReFrames формата : 16 кадров
Идентификатор кодека : V_MPEG4/ISO/AVC
Продолжительность : 2 ч. 20 м.
Битрейт : 2154 Кбит/сек
Ширина : 912 пикселей
Высота : 384 пикселя
Соотношение сторон : 2,40:1
Частота кадров : 24,000 кадра/сек
Цветовое пространство : YUV
Субдискретизация насыщенности : 4:2:0
Битовая глубина : 8 бит
Тип развёртки : Прогрессивная
Бит/(Пиксели*Кадры) : 0.256
Размер потока : 2,01 Гбайт (71%)
Заголовок : The Place Beyond the Pines / Место под соснами
Библиотека кодирования : x264 core 130 r2273 b3065e6
Настройки программы : cabac=1 / ref=16 / deblock=1:-1:-1 / analyse=0x3:0x133 / me=umh / subme=11 / psy=1 / psy_rd=1.00:0.08 / mixed_ref=1 / me_range=64 / chroma_me=1 / trellis=2 / 8x8dct=1 / cqm=0 / deadzone=21,11 / fast_pskip=0 / chroma_qp_offset=-3 / threads=4 / lookahead_threads=1 / sliced_threads=0 / nr=0 / decimate=1 / interlaced=0 / bluray_compat=0 / constrained_intra=0 / bframes=9 / b_pyramid=2 / b_adapt=2 / b_bias=0 / direct=3 / weightb=1 / open_gop=0 / weightp=2 / keyint=250 / keyint_min=23 / scenecut=40 / intra_refresh=0 / rc_lookahead=50 / rc=2pass / mbtree=1 / bitrate=2154 / ratetol=1.0 / qcomp=0.60 / qpmin=0 / qpmax=69 / qpstep=4 / cplxblur=20.0 / qblur=0.5 / ip_ratio=1.40 / aq=1:1.00
Язык : English
Default : Да
Forced : Нет
Аудио #1
Идентификатор : 2
Формат : AC-3
Формат/Информация : Audio Coding 3
Расширение режима : CM (complete main)
Параметр Endianness формата : Big
Идентификатор кодека : A_AC3
Продолжительность : 2 ч. 20 м.
Вид битрейта : Постоянный
Битрейт : 384 Кбит/сек
Каналы : 6 каналов
Расположение каналов : Front: L C R, Side: L R, LFE
Частота : 48,0 КГц
Битовая глубина : 16 бит
Метод сжатия : С потерями
Размер потока : 385 Мбайт (13%)
Заголовок : Dub
Язык : Russian
Default : Да
Forced : Нет
Аудио #2
Идентификатор : 3
Формат : AC-3
Формат/Информация : Audio Coding 3
Расширение режима : CM (complete main)
Параметр Endianness формата : Big
Идентификатор кодека : A_AC3
Продолжительность : 2 ч. 20 м.
Вид битрейта : Постоянный
Битрейт : 384 Кбит/сек
Каналы : 6 каналов
Расположение каналов : Front: L C R, Side: L R, LFE
Частота : 48,0 КГц
Битовая глубина : 16 бит
Метод сжатия : С потерями
Размер потока : 385 Мбайт (13%)
Заголовок : Original
Язык : English
Default : Нет
Forced : Нет
Текст
Идентификатор : 4
Формат : UTF-8
Идентификатор кодека : S_TEXT/UTF8
Идентификатор кодека/Информация : UTF-8 Plain Text
Язык : Russian
Default : Да
Forced : Нет
Меню
00:00:00.000 : en:00:00:00.000
00:11:50.375 : en:00:11:50.375
00:21:43.291 : en:00:21:43.291
00:33:08.708 : en:00:33:08.708
00:40:35.916 : en:00:40:35.916
00:52:02.666 : en:00:52:02.666
01:03:16.208 : en:01:03:16.208
01:12:53.625 : en:01:12:53.625
01:22:57.500 : en:01:22:57.500
01:34:39.500 : en:01:34:39.500
01:49:16.000 : en:01:49:16.000
02:06:21.208 : en:02:06:21.208

Скриншоты

-Источник:
Показать сообщения:    

Текущее время: Сегодня 03:48

Часовой пояс: GMT



Вы не можете начинать темы
Вы не можете отвечать на сообщения
Вы не можете редактировать свои сообщения
Вы не можете удалять свои сообщения
Вы не можете голосовать в опросах
Вы не можете прикреплять файлы к сообщениям
Вы не можете скачивать файлы
Наши партнеры: интернет магазин Ивановского трикотажа textilla.ru