Важное объявление!
У Нас Все раздачи мультитрекерные, при нуле пиров в релизах, можете смело вставать на закачку!
Статистика раздачи
Размер:     |    Зарегистрирован:     |    Скачан:     |   
Нет
 
     
 
 
Автор Сообщение

HUNTER

Стаж:
5 лет
Сообщений:
67968

Репутация: 101

[+] [-]
Вне форума [Профиль] [ЛС]

-Мерзлая земля / The Frozen Ground-

Год выпуска: 2013
Страна: США
Жанр: Триллер, Криминал
Продолжительность: 01:45:33
Перевод: Дублированный [Лицензия]
Субтитры: Английские-В ролях: Николас Кейдж, Джон Кьюсак, Фифти Сент, Ванесса Энн Хадженс, Дин Норрис, Кэтрин ЛаНаса, Рада Митчелл
Режиссёр: Скотт Уолкер-Описание:-Все были уверены, что Роберт Хансен — приличный семьянин, владелец пекарни и славный охотник. Никто не подозревал, что на самом деле он — безжалостный маньяк, который похитил и убил более двадцати женщин. И только 17-летней Синди Полсон удалось сбежать от убийцы. Она наводит на след маньяка полицейского, который начинает опасное расследование. Ему никто не верит: Хансен — слишком приличный человек для такого обвинения… Но упорный коп знает свое дело и должен дойти до конца…-Качество: Blu-Ray Remux (1080p)
Формат: MKV
Видео кодек: AVC
Аудио кодек: AC3,DTS
Видео: MPEG-4 AVC, 36129 Кбит/с, 1920x1080, 23.976 кадр/с
Аудио 1: 48 kHz, (AC3, 6 ch, 384 Кбит/с)(Rus)
Аудио 2: 48 kHz, (AC3, 2 ch, 224 Кбит/с)(ENG)
Аудио 3: 48 kHz, (DTS-HD МА, 6 ch, 3493 Кбит/с) (Eng)

СЭМПЛ

Рейтинг

Рейтинг:

MI

1.Общее
2.Уникальный идентификатор : 218329763497865689348864172103999569895 (0xA440C86DE9F233FC8433278915423FE7)
3.Полное имя : C:1The.Frozen.Ground.2013..MPEG-4.AVC.BluRay-Remux(1080p).mkv
4.Формат : Matroska
5.Версия формата : Version 2
6.Размер файла : 28,1 Гбайт
7.Продолжительность : 1 ч. 45 м.
8.Режим общего битрейта : Переменный
9.Общий поток : 38,0 Мбит/сек
10.Дата кодирования : UTC 2013-10-03 20:36:11
11.Программа кодирования : mkvmerge v6.3.0 ('You can't stop me!') built on Jun 28 2013 20:09:41
12.Библиотека кодирования : libebml v1.3.0 + libmatroska v1.4.0
13.
14.Видео
15.Идентификатор : 1
16.Формат : AVC
17.Формат/Информация : Advanced Video Codec
18.Профиль формата : [url=mailto:High@L4.1]High@L4.1[/url]
19.Параметр CABAC формата : Да
20.Параметр ReFrames формата : 4 кадра
21.Идентификатор кодека : V_MPEG4/ISO/AVC
22.Продолжительность : 1 ч. 45 м.
23.Вид битрейта : Переменный
24.Максимальный битрейт : 37,0 Мбит/сек
25.Ширина : 1920 пикселей
26.Высота : 1080 пикселей
27.Соотношение сторон : 16:9
28.Режим частоты кадров : Постоянный
29.Частота кадров : 23,976 кадра/сек
30.Цветовое пространство : YUV
31.Субдискретизация насыщенности : 4:2:0
32.Битовая глубина : 8 бит
33.Тип развёртки : Прогрессивная
34.Default : Да
35.Forced : Нет
36.
37.Аудио #1
38.Идентификатор : 2
39.Формат : AC-3
40.Формат/Информация : Audio Coding 3
41.Расширение режима : CM (complete main)
42.Параметр Endianness формата : Big
43.Идентификатор кодека : A_AC3
44.Продолжительность : 1 ч. 45 м.
45.Вид битрейта : Постоянный
46.Битрейт : 384 Кбит/сек
47.Каналы : 6 каналов
48.Расположение каналов : Front: L C R, Side: L R, LFE
49.Частота : 48,0 КГц
50.Битовая глубина : 16 бит
51.Метод сжатия : С потерями
52.Размер потока : 290 Мбайт (1%)
53.Язык : Russian
54.Default : Да
55.Forced : Нет
56.
57.Аудио #2
58.Идентификатор : 3
59.Формат : DTS
60.Формат/Информация : Digital Theater Systems
61.Профиль формата : MA / Core
62.Режим : 16
63.Параметр Endianness формата : Big
64.Идентификатор кодека : A_DTS
65.Продолжительность : 1 ч. 45 м.
66.Вид битрейта : Переменный
67.Битрейт : Неизвестно / 1509 Кбит/сек
68.Каналы : 6 каналов
69.Расположение каналов : Front: L C R, Side: L R, LFE
70.Частота : 48,0 КГц
71.Битовая глубина : 24 бит
72.Метод сжатия : Без потерь / Lossy
73.Язык : English
74.Default : Нет
75.Forced : Нет
76.
77.Аудио #3
78.Идентификатор : 4
79.Формат : AC-3
80.Формат/Информация : Audio Coding 3
81.Расширение режима : CM (complete main)
82.Параметр Endianness формата : Big
83.Идентификатор кодека : A_AC3
84.Продолжительность : 1 ч. 45 м.
85.Вид битрейта : Постоянный
86.Битрейт : 224 Кбит/сек
87.Каналы : 2 канала
88.Расположение каналов : Front: L R
89.Частота : 48,0 КГц
90.Битовая глубина : 16 бит
91.Метод сжатия : С потерями
92.Размер потока : 169 Мбайт (1%)
93.Язык : English
94.Default : Нет
95.Forced : Нет
96.
97.Текст #1
98.Идентификатор : 5
99.Формат : PGS
100.Режим смешивания : zlib
101.Идентификатор кодека : S_HDMV/PGS
102.Идентификатор кодека/Информация : The same subtitle format used on BDs/HD-DVDs
103.Язык : English
104.Default : Нет
105.Forced : Нет
106.
107.Текст #2
108.Идентификатор : 6
109.Формат : PGS
110.Режим смешивания : zlib
111.Идентификатор кодека : S_HDMV/PGS
112.Идентификатор кодека/Информация : The same subtitle format used on BDs/HD-DVDs
113.Язык : English
114.Default : Нет
115.Forced : Нет
116.
117.Меню
118.00:00:00.000 : en:00:00:00.000
119.00:05:41.341 : en:00:05:41.341
120.00:12:40.885 : en:00:12:40.885
121.00:18:13.634 : en:00:18:13.634
122.00:23:03.132 : en:00:23:03.132
123.00:29:12.417 : en:00:29:12.417
124.00:36:09.959 : en:00:36:09.959
125.00:44:15.736 : en:00:44:15.736
126.00:48:28.280 : en:00:48:28.280
127.00:55:44.091 : en:00:55:44.091
128.01:01:32.105 : en:01:01:32.105
129.01:09:21.783 : en:01:09:21.783
130.01:15:47.543 : en:01:15:47.543
131.01:22:33.740 : en:01:22:33.740
132.01:27:34.875 : en:01:27:34.875
133.01:31:15.053 : en:01:31:15.053
DISC INFO:
Disc Title: The.Frozen.Ground.2013.1080p.BluRay.AVC.DTS-HD.MA.5.1-PublicHD
Disc Size: 48,773,303,224 bytes
Protection: AACS
BD-Java: Yes
BDInfo: 0.5.8
PLAYLIST REPORT:
Name: 00800.MPLS
Length: 1:45:34.161 (h:m:s.ms)
Size: 31,854,888,960 bytes
Total Bitrate: 40.23 Mbps
VIDEO:
Codec Bitrate Deion
----- ------- -----------
MPEG-4 AVC Video 34367 kbps 1080p / 23.976 fps / 16:9 / High Profile 4.1
AUDIO:
Codec Language Bitrate Deion
----- -------- ------- -----------
DTS-HD Master Audio English 3493 kbps 5.1 / 48 kHz / 3493 kbps / 24-bit (DTS Core: 5.1 / 48 kHz / 1509 kbps / 24-bit)
Dolby Digital Audio English 224 kbps 2.0 / 48 kHz / 224 kbps
SUBTITLES:
Codec Language Bitrate Deion
----- -------- ------- -----------
Presentation Graphics English 51.914 kbps
Presentation Graphics English 55.845 kbps
Presentation Graphics Spanish 52.305 kbps

Скриншоты


_________________
Показать сообщения:    

Текущее время: Сегодня 12:47

Часовой пояс: GMT



Вы не можете начинать темы
Вы не можете отвечать на сообщения
Вы не можете редактировать свои сообщения
Вы не можете удалять свои сообщения
Вы не можете голосовать в опросах
Вы не можете прикреплять файлы к сообщениям
Вы не можете скачивать файлы