Ивановский Торрент трекер
Яндекс.Погода
 

[Цитировать]
HUNTER

Международный аэропорт Дубай (3 сезон: 1 серия из 4) / Ultimate Airport Dubai / 2015 / ДБ / TVRip
Дата/Год выпуска: 2015
Страна: США
Жанр: Документальный, научно-познавательный, строительст
Продолжительность: 00:43:51
Перевод: Профессиональный (дублированный)
Доп. инфо о переводе: Велис
Оригинальная аудиодорожка: английский
Телеканал: National Geographic
Описание: Менее 55 лет назад на месте Международного аэропорта Дубая была огромная пустыня. Но сегодня это мекка международных воздушных перевозок. Это третий по загруженности аэропорт в мире для пассажиров международных рейсов, он принимает 344 000 рейсов, 57 млн. пассажиров и 2000 тысяч тонн грузов в год. Канал National Geographic покажет закулисную жизнь трех международных терминалов аэропорта, в том числе терминала 3 - самого большого здания на земле, его размер составляет 359 футбольных полей! Беспрецедентный доступ ко всем аспектам этого мега-центра – этот сериал показывает некоторых из 60 000 сотрудников, работающих в аэропорту. От управления воздушным движением, таможенных служб, которые перехватывают подозреваемых в контрабанде наркотиков до строительства нового терминала стоимостью 3,2 млрд. долларов, National Geographic Channel предоставляет 360 -градусный обзор этого сверхсовременного аэропорта.
качество: TVRip
формат: AVI
Видео: XviD. 720x400 (16:9) 25.00fps ~ 1828 Кбит/сек
Аудио: Русский, MP3, 2 ch, 48,0 КГц, 192 Кбит/с
Аудио 2: Английский, MP3, 2 ch, 48,0 КГц, 192 Кбит/с
Сэмпл: http://sendfile.su/1162875

Релиз

Релиз: Dmitry-tv [Премьера! от: 05.10.2015г.]
Программа озвучена: на студии "Велис"
Текст читал: Станислав Войнич
Рип: HDmitry-tv
Телеканал: National Geographic Channels
..............................................................
Документальный дубляж:
Голос рассказчика - полный дубляж
Интервью - слышна оригинальная речь

Список выпусков/серий

Дата выхода серий: http://natgeotv.com/ru/ultimate-airport-dubai/about
01. Международный аэропорт Дубай: Серия 1 [от: 05.10.2015г.]
В самом загруженном международном аэропорту мира Хассан задерживает контрабандиста, проглотившего огромное количество капсул с кокаином.
02. Международный аэропорт Дубай: Серия 2 [В Понедельник 12 Октябрь в 21:50 - Канал National Geographic]
Мел успокаивает разгневанных пассажиров задержанного рейса, Карлу попадается взрывной багаж, а Фил испытывает новую революционную систему.
03. Международный аэропорт Дубай: Серия 3 [В Понедельник 19 Октябрь в 21:50 - Канал National Geographic]
Мел разбирается с последствиями кражи на борту, а Хассан задерживает контрабандистку, которая пыталась провезти бриллианты на миллион долларов.
04. Международный аэропорт Дубай: Серия 4 [В Понедельник 26 Октябрь в 21:50 - Канал National Geographic]
Мел имеет дело с сигналом о чрезвычайном происшествии, а Найзелу приходится решать судьбу грузового самолета.

MediaInfo

Полное имя : I:\Ultimate.Airport.Dubai.S03E01. -[NatGeo]-.aviФормат : AVIФормат/Информация : Audio Video InterleaveРазмер файла : 700 МбайтПродолжительность : 43 м.Общий поток : 2232 Кбит/секЧасть/Положение : 01Дата записи : 2015Программа кодирования : Lavf56.40.101Примечание : HDmitry-tv
ВидеоИдентификатор : 0Формат : MPEG-4 VisualПрофиль формата : Advanced Simple@L1Параметр BVOP формата : 3Параметр QPel формата : НетПараметр GMC формата : Без точки переходаПараметр матрицы формата : Default (H.263)Идентификатор кодека : XVIDИдентификатор кодека/Подсказка : XviDПродолжительность : 43 м.Битрейт : 1828 Кбит/секШирина : 720 пикселейВысота : 400 пикселейСоотношение сторон : 16:9Частота кадров : 25,000 кадров/секЦветовое пространство : YUVСубдискретизация насыщенности : 4:2:0Битовая глубина : 8 битТип развёртки : ПрогрессивнаяМетод сжатия : С потерямиБит/(Пиксели*Кадры) : 0.254Размер потока : 573 Мбайт (82%)Библиотека кодирования : Lavc56.59.100
Аудио #1Идентификатор : 1Формат : MPEG AudioВерсия формата : Version 1Профиль формата : Layer 3Идентификатор кодека : 55Идентификатор кодека/Подсказка : MP3Продолжительность : 43 м.Вид битрейта : ПостоянныйБитрейт : 192 Кбит/секКаналы : 2 каналаЧастота : 48,0 КГцМетод сжатия : С потерямиРазмер потока : 60,2 Мбайт (9%)Выравнивание : Соединение по промежуткамПродолжительность промежутка : 24 мс. (0,60 видеокадр)
Аудио #2Идентификатор : 2Формат : MPEG AudioВерсия формата : Version 1Профиль формата : Layer 3Идентификатор кодека : 55Идентификатор кодека/Подсказка : MP3Продолжительность : 43 м.Вид битрейта : ПостоянныйБитрейт : 192 Кбит/секКаналы : 2 каналаЧастота : 48,0 КГцМетод сжатия : С потерямиРазмер потока : 60,2 Мбайт (9%)Выравнивание : Соединение по промежуткамПродолжительность промежутка : 24 мс. (0,60 видеокадр)

Скриншоты

Показать сообщения:    

Текущее время: 23-Окт 21:35

Часовой пояс: UTC - 1


Вы не можете начинать темы
Вы не можете отвечать на сообщения
Вы не можете редактировать свои сообщения
Вы не можете удалять свои сообщения
Вы не можете голосовать в опросах
Вы не можете прикреплять файлы к сообщениям
Вы не можете скачивать файлы

!ВНИМАНИЕ!
Сайт не предоставляет электронные версии произведений, а занимается лишь коллекционированием и каталогизацией ссылок, присылаемых и публикуемых на форуме нашими читателями. Если вы являетесь правообладателем какого-либо представленного материала и не желаете, чтобы ссылка на него находилась в нашем каталоге, свяжитесь с нами, и мы незамедлительно удалим ее. Файлы для обмена на трекере предоставлены пользователями сайта, и администрация не несет ответственности за их содержание. Просьба не заливать файлы, защищенные авторскими правами, а также файлы нелегального содержания!