Медицина будущего / серии 1-4 из 4 (Семён Винокур) [2013, телепередача, WEB-DLRip, RUS] :: Ивановский Торрент трекер
Важное объявление!
У Нас Все раздачи мультитрекерные, при нуле пиров в релизах, можете смело вставать на закачку!
Статистика раздачи
Размер:     |    Зарегистрирован:     |    Скачан:     |   
Нет
 
     
 
 
Автор Сообщение

HUNTER

Стаж:
4 года 11 месяцев
Сообщений:
66116

Репутация: 101

[+] [-]
Вне форума [Профиль] [ЛС]

Медицина будущего / серии 1-4 из 4
-Название: Медицина будущего
Год выпуска: 2013
Страна: Россия, Израиль
Производство: Ari Films
Жанр: телепередача
Продолжительность: 04:05:37
Перевод: оригинал (русский язык)
Субтитры: нет-В ролях: М. Лайтман, А. Ангелов, М. Санилевич, С. Винокур
Режиссёр: Семён Винокур-Описание: Врач сегодня очень далёк от самопожертвования, как это было некогда в прошлом. Если мы коренным образом не изменим людей: и врачей, и пациентов – нам не выстроить между ними другие отношения. Нам надо исправлять человека! И тогда они сами, исходя из своего внутреннего изменения, построят другую систему...-Качество: WEB-DLRip
Формат: AVI
Видеокодек: XviD
Аудиокодек: MP3
Видео: 720 x 400, 25,000 fps, ~ 1000 Kbps, ~ 0.140 bit/pixel
Аудио: 44,1 kHz, 2 (L,R) ch, 128 kb/s-Аудиоверсия телепередачи Медицина будущего / выпуски 1-4 из 4

Скриншоты

MediaInfo

ОбщееПолное имя : teleprogramma.Medicina_budushhego.avi\Медицина будущего 01.aviФормат : AVIФормат/Информация : Audio Video InterleaveРазмер файла : 498 МбайтПродолжительность : 1 ч. 1 м.Общий поток : 1141 Кбит/секПрограмма кодирования : Lavf52.93.0
ВидеоИдентификатор : 0Формат : xvidИдентификатор кодека : xvidПродолжительность : 1 ч. 1 м.Битрейт : 1000 Кбит/секШирина : 720 пикселейВысота : 400 пикселейСоотношение сторон : 16:9Частота кадров : 25,000 кадров/секБит/(Пиксели*Кадры) : 0.139Размер потока : 437 Мбайт (88%)
АудиоИдентификатор : 1Формат : MPEG AudioВерсия формата : Version 1Профиль формата : Layer 3Режим : Joint stereoРасширение режима : MS StereoИдентификатор кодека : 55Идентификатор кодека/Подсказка : MP3Продолжительность : 1 ч. 1 м.Вид битрейта : ПостоянныйБитрейт : 128 Кбит/секКаналы : 2 каналаЧастота : 44,1 КГцМетод сжатия : С потерямиРазмер потока : 55,9 Мбайт (11%)Выравнивание : Соединение по промежуткамПродолжительность промежутка : 26 мс. (0,65 видеокадр)Библиотека кодирования : LAME3.98.4

Список серий


01 Медицина будущего 01 - (61:04)
02 Медицина будущего 02 - (59:54)
03 Медицина будущего 03 - (65:50)
04 Медицина будущего 04 - (58:47)

_________________
Показать сообщения:    

Текущее время: Сегодня 07:35

Часовой пояс: GMT



Вы не можете начинать темы
Вы не можете отвечать на сообщения
Вы не можете редактировать свои сообщения
Вы не можете удалять свои сообщения
Вы не можете голосовать в опросах
Вы не можете прикреплять файлы к сообщениям
Вы не можете скачивать файлы