Важное объявление!
У Нас Все раздачи мультитрекерные, при нуле пиров в релизах, можете смело вставать на закачку!
Статистика раздачи
Размер:     |    Зарегистрирован:     |    Скачан:     |   
Нет
 
     
 
 
Автор Сообщение

HUNTER

Стаж:
5 лет 1 месяц
Сообщений:
68439

Репутация: 101

[+] [-]
Вне форума [Профиль] [ЛС]

Медведь / The Bear / L' Ours-
Год выпуска: 1988
Страна: Франция, США
Жанр: драма, приключения, семейный
Продолжительность: 01:36:37
Перевод: Студийный (одноголосый закадровый) по заказу "Екатеринбург Арт"
Оригинальная звуковая дорожка: French
Субтитры: Russian, Ukrainian, English, French-Режиссер: Жан-Жак Анно / Jean-Jacques Annaud
В ролях: Медведь Барт, медвежонок Юк, Чеки Карио / Tcheky Karyo, Джек Уоллес / Jack Wallace, Андре Лакомб / Andre Lacombe
О фильме: Среди прекрасных и величественных пейзажей Британской Колумбии случилась трогательная история о медвежонке, потерявшем свою мать и предоставленным самому себе, в то время как двое охотников продолжают рыскать по лесу в поисках добычи.
Судьба сводит вместе осиротевшего малыша и огромного раненого медведя. Непросто складываются их взаимоотношения, но охотники с ружьями и злыми собаками оказываются куда страшнее. Столкновение людей и животных неизбежно.
А зритель фильма оказывается в «медвежьей шкуре» и наблюдает за людьми с позиции главного героя.-Релиз:
Тип релиза: BDRip 1080p
Источник: Медведь / The Bear / L' Ours (1988) [4K Remastered] Blu-ray [Custom] 1080p AVC DTS-HD 5.1
Контейнер: MKV
Видео: 1920x816 at 23.976 fps, x264@L4.1, ~14.9 Mbps
Аудио #01: Russian: 48KHz/16-bit, DTS, 3/2 (L,C,R,l,r) + LFE ch, ~1509 kbps |Одноголосый закадровый, по заказу "Екатеринбург Арт"|
Аудио #02: French: 48KHz/16-bit, DTS, 3/2 (L,C,R,l,r) + LFE ch, ~1509 kbps
Аудио #03: French: 48KHz/16-bit, DTS, 2.0 (L,R) ch, ~768 kbps |Коментарии режиссера / Comments director|
Семпл-

Кадры из фильма


-

mInfo

Формат : Matroska
Версия формата : Version 4 / Version 2
Размер файла : 12,9 Гбайт
Продолжительность : 1 ч. 36 м.
Общий поток : 19,1 Мбит/сек
Название фильма : Create by DeTorquemada for HDCLUB
Дата кодирования : UTC 2015-06-27 16:48:14
Программа кодирования : mkvmerge v7.0.0 ('Where We Going') 32bit built on Jun 9 2014 15:08:34
Библиотека кодирования : libebml v1.3.0 + libmatroska v1.4.1
DURATION : 01:32:56.070000000
NUMBER_OF_FRAMES : 86
NUMBER_OF_BYTES : 3834
_STATISTICS_WRITING_APP : mkvmerge v7.0.0 ('Where We Going') 32bit built on Jun 9 2014 15:08:34
_STATISTICS_WRITING_DATE_UTC : 2015-06-27 16:48:14
_STATISTICS_TAGS : BPS DURATION NUMBER_OF_FRAMES NUMBER_OF_BYTES
Видео
Идентификатор : 1
Формат : AVC
Формат/Информация : Advanced Video Codec
Профиль формата : High@L4.1
Параметр CABAC формата : Да
Параметр ReFrames формата : 5 кадров
Идентификатор кодека : V_MPEG4/ISO/AVC
Продолжительность : 1 ч. 36 м.
Битрейт : 14,9 Мбит/сек
Ширина : 1920 пикселей
Высота : 816 пикселей
Соотношение сторон : 2,35:1
Режим частоты кадров : Постоянный
Частота кадров : 23,976 кадра/сек
Цветовое пространство : YUV
Субдискретизация насыщенности : 4:2:0
Битовая глубина : 8 бит
Тип развёртки : Прогрессивная
Бит/(Пиксели*Кадры) : 0.396
Размер потока : 10,1 Гбайт (78%)
Заголовок : Медведь / The Bear / L' Ours (1988) [4K Remastered]- Release for HDCLUB
Библиотека кодирования : x264 core 146 r2538 121396c
Настройки программы : cabac=1 / ref=5 / deblock=1:-3:-3 / analyse=0x3:0x113 / me=umh / subme=10 / psy=1 / psy_rd=1.00:0.00 / mixed_ref=1 / me_range=48 / chroma_me=1 / trellis=2 / 8x8dct=1 / cqm=0 / deadzone=21,11 / fast_pskip=1 / chroma_qp_offset=-2 / threads=6 / lookahead_threads=1 / sliced_threads=0 / nr=0 / decimate=1 / interlaced=0 / bluray_compat=0 / constrained_intra=0 / bframes=3 / b_pyramid=2 / b_adapt=2 / b_bias=0 / direct=1 / weightb=1 / open_gop=0 / weightp=2 / keyint=240 / keyint_min=23 / scenecut=40 / intra_refresh=0 / rc_lookahead=65 / rc=crf / mbtree=0 / crf=18.0 / qcomp=0.60 / qpmin=0 / qpmax=69 / qpstep=4 / vbv_maxrate=50000 / vbv_bufsize=62500 / crf_max=0.0 / nal_hrd=none / filler=0 / ip_ratio=1.40 / pb_ratio=1.30 / aq=1:0.80
Язык : French
Default : Да
Forced : Нет
Коэффициенты матрицы : BT.709
colour_range : Limited
DURATION : 01:36:40.628000000
NUMBER_OF_FRAMES : 139076
NUMBER_OF_BYTES : 11070331227
_STATISTICS_WRITING_APP : mkvmerge v7.0.0 ('Where We Going') 32bit built on Jun 9 2014 15:08:34
_STATISTICS_WRITING_DATE_UTC : 2015-06-27 16:48:14
_STATISTICS_TAGS : BPS DURATION NUMBER_OF_FRAMES NUMBER_OF_BYTES
Аудио #1
Идентификатор : 2
Формат : DTS
Формат/Информация : Digital Theater Systems
Режим : 16
Параметр Endianness формата : Big
Идентификатор кодека : A_DTS
Продолжительность : 1 ч. 36 м.
Вид битрейта : Постоянный
Битрейт : 1509 Кбит/сек
Каналы : 6 каналов
Расположение каналов : Front: L C R, Side: L R, LFE
Частота : 48,0 КГц
Битовая глубина : 16 бит
Метод сжатия : С потерями
Размер потока : 1,02 Гбайт (8%)
Заголовок : 48KHz/16-bit, DTS, 3/2 (L,C,R,l,r) + LFE ch, ~1509 kbps - Одноголосый закадровый, по заказу "Екатеринбург Арт"
Язык : Russian
Default : Да
Forced : Нет
Аудио #2
Идентификатор : 3
Формат : DTS
Формат/Информация : Digital Theater Systems
Режим : 16
Параметр Endianness формата : Big
Идентификатор кодека : A_DTS
Продолжительность : 1 ч. 36 м.
Вид битрейта : Постоянный
Битрейт : 1509 Кбит/сек
Каналы : 6 каналов
Расположение каналов : Front: L C R, Side: L R, LFE
Частота : 48,0 КГц
Битовая глубина : 16 бит
Метод сжатия : С потерями
Размер потока : 1,02 Гбайт (8%)
Заголовок : 48KHz/16-bit, DTS, 3/2 (L,C,R,l,r) + LFE ch, ~1509 kbps
Язык : French
Default : Нет
Forced : Нет
Аудио #3
Идентификатор : 4
Формат : DTS
Формат/Информация : Digital Theater Systems
Режим : 16
Параметр Endianness формата : Big
Идентификатор кодека : A_DTS
Продолжительность : 1 ч. 36 м.
Вид битрейта : Постоянный
Битрейт : 768 Кбит/сек
Каналы : 2 канала
Расположение каналов : Front: L R
Частота : 48,0 КГц
Битовая глубина : 16 бит
Метод сжатия : С потерями
Размер потока : 531 Мбайт (4%)
Заголовок : 48KHz/16-bit, DTS, 2.0 (L,R) ch, ~768 kbps - Коментарии режиссера Жан-Жака Анно / Comments director Jean-Jacques Annaud
Язык : French
Default : Нет
Forced : Нет
Текст #1
Идентификатор : 5
Формат : UTF-8
Идентификатор кодека : S_TEXT/UTF8
Идентификатор кодека/Информация : UTF-8 Plain Text
Язык : Russian
Default : Нет
Forced : Нет
Текст #2
Идентификатор : 6
Формат : UTF-8
Идентификатор кодека : S_TEXT/UTF8
Идентификатор кодека/Информация : UTF-8 Plain Text
Язык : French
Default : Нет
Forced : Нет
Текст #3
Идентификатор : 7
Формат : UTF-8
Идентификатор кодека : S_TEXT/UTF8
Идентификатор кодека/Информация : UTF-8 Plain Text
Язык : Ukrainian
Default : Нет
Forced : Нет
Меню
00:00:00.000 : en:
00:08:16.537 : en:
00:13:26.722 : en:
00:26:06.606 : en:
00:34:16.971 : en:
00:39:08.763 : en:
00:44:54.274 : en:
00:52:44.536 : en:
01:02:05.138 : en:
01:13:33.492 : en:
01:22:20.268 : en:
01:25:50.019 : en:
01:29:59.352 : en:
01:32:52.858 : en:
01:36:40.503 : en:
-

_________________
Показать сообщения:    

Текущее время: Сегодня 15:19

Часовой пояс: GMT



Вы не можете начинать темы
Вы не можете отвечать на сообщения
Вы не можете редактировать свои сообщения
Вы не можете удалять свои сообщения
Вы не можете голосовать в опросах
Вы не можете прикреплять файлы к сообщениям
Вы не можете скачивать файлы