Важное объявление!
У Нас Все раздачи мультитрекерные, при нуле пиров в релизах, можете смело вставать на закачку!
 
Автор Сообщение

HUNTER

Стаж:
4 года 11 месяцев
Сообщений:
66026

Репутация: 101

[+] [-]
Вне форума [Профиль] [ЛС]

Медведи-соседи / Boonie Bears, to the Rescue!-
Страна: Китай
Жанр: мультфильм, комедия, приключения
Год выпуска: 2014
Продолжительность: 01:33:15
Перевод: Профессиональный (полное дублирование)
Русские субтитры: Нет-Режиссер: Динг Лианг / Ding Liang-Роли озвучивали: Рик Джей Глен (Briar / Ted Marshall Jr. (The Evil Boss) / Ted Marshall Sr. / Arnold / Babu / Vick's Father / TV News Anchor 1 / Bald Thug / Masked Thug 2, озвучка), Шиван Ламсден (Police Dispatch / Masked Thug 3, озвучка), Paul «Maxx» Rinehart (Logger Vick / Tiki / Mr. Lee, озвучка), Тони Томпсон (Maurice / Vick's Mom / Masked Thug 4, озвучка), Джастин Джозеф Вилер (Bramble / Policeman / Skinny Thug / Masked Thug 1 / TV News Anchor 2 / Bystander / Train Conductor, озвучка)-Роли дублировали: Дмитрий Хрусталев, Анатолий Сергеев (Ted Marshall Jr. (The Evil Boss)), Тимур Батрутдинов, Александр Белый, Александр Воронов, Александр Зачиняев, Антон Савенков, Ольга Голованова, Алексей Шадхин, Екатерина Мирошникова, Иван Васильев-Описание: Медведям-соседям и вездесущему дровосеку придется стать нянями очутившегося у них в лесу ребенка. Все бы ничего, если бы эта девочка не была до этого похищена и упущена бандитами, которые жаждут ее вернуть и доставить заказчику - главному злодею. Теперь нашим героям предстоит сразиться с плохими парнями и помочь найти дорогу домой малышке.-Рейтинг:
-Сборы в России: $198 026
Мировая премьера: 17 января 2014
Релиз на DVD: 11 декабря 2014 «CD Land»-Релиз: -Семпл-Качество: WEB-DLRip
Формат: AVI
Видео: 720x400 (1.80:1), 24.000 fps, XviD build 65 ~1842 kbps avg, 0.27 bit/pixel
Аудио: 48 kHz, AC3 Dolby Digital, 3/2 (L,C,R,l,r) + LFE ch, ~384 kbps
Субтитры: Отсутствуют-

MI

Format : AVIFormat/Info : Audio Video InterleaveFile size : 1.46 GiBDuration : 1h 33mnOverall bit rate : 2 235 KbpsWriting application : VirtualDubMod 1.5.10.3 | www.virtualdub-fr.org || (build 2550/release)Writing library : VirtualDubMod build 2550/release
VideoID : 0Format : MPEG-4 VisualFormat profile : Advanced Simple@L5Format settings, BVOP : 2Format settings, QPel : NoFormat settings, GMC : No warppointsFormat settings, Matrix : CustomCodec ID : XVIDCodec ID/Hint : XviDDuration : 1h 33mnBit rate : 1 842 KbpsWidth : 720 pixelsHeight : 400 pixelsDisplay aspect ratio : 16:9Frame rate : 24.000 fpsColor space : YUVChroma subsampling : 4:2:0Bit depth : 8 bitsScan type : ProgressiveCompression mode : LossyBits/(Pixel*Frame) : 0.267Stream size : 1.20 GiB (82%)Writing library : XviD 65
AudioID : 1Format : AC-3Format/Info : Audio Coding 3Mode extension : CM (complete main)Format settings, Endianness : BigCodec ID : 2000Duration : 1h 33mnBit rate mode : ConstantBit rate : 384 KbpsChannel(s) : 6 channelsChannel positions : Front: L C R, Side: L R, LFESampling rate : 48.0 KHzBit depth : 16 bitsCompression mode : LossyStream size : 256 MiB (17%)Alignment : Split accross interleavesInterleave, duration : 42 ms (1.00 video frame)Interleave, preload duration : 500 ms
Все раздачи мультфильма!

_________________
Показать сообщения:    

Текущее время: Сегодня 16:02

Часовой пояс: GMT



Вы не можете начинать темы
Вы не можете отвечать на сообщения
Вы не можете редактировать свои сообщения
Вы не можете удалять свои сообщения
Вы не можете голосовать в опросах
Вы не можете прикреплять файлы к сообщениям
Вы не можете скачивать файлы