Ивановский Торрент трекер
Яндекс.Погода
 

[Цитировать]
mihis

Машинист / The Machinist / El Maquinista Год выхода: 2004
Выпущено: Испания
Жанр: Триллер, детектив, драма
Продолжительность: 01:41:55
Перевод: Профессиональный (многоголосый, закадровый) + Оригинал
Субтитры: Русские, английские, английские SDH (внешние *.srt)
Режиссер: Брэд Андерсон
В ролях: Кристиан Бэйл, Дженнифер Джейсон Ли, Айтана Санчез-Хихон, Джон Шэриан, Майкл Айронсайд
Описание:
Тревор Резник не спит уже целый год. Превратившись в живой скелет, он балансирует на грани сна и реальности. Он устал отличать пугающие видения от странных событий своей каждодневной жизни, но в последнее время они стали пересекаться самым страшным и непредсказуемым образом.
Теперь, чтобы не сойти с ума, Тревор должен выяснить, что с ним происходит и кто он на самом деле? Начав рискованные поиски в лабиринте ужасающих событий и догадок, он не подозревает о том, что ему предстоит узнать…

Качество: BDRip
Формат: AVI
Видео кодек: XviD
Аудио кодек: AC3
Видео: 720x304 (2.37:1), 23.976 fps, XviD build 50 ~2162 kbps avg, 0.41 bit/pixel
Аудио: 48 kHz, AC3 Dolby Digital, 3/2 (L,C,R,l,r) + LFE ch, ~448.00 kbps avg Rus, Eng

Награды

Жорж, 2006 год
Номинации (1):
Лучшее низкобюджетное кино/арт-хаус
Европейская киноакадемия, 2005 год
Номинации (1):
Приз зрительских симпатий за лучшую мужскую роль (Кристиан Бэйл)
Гойя, 2005 год
Номинации (1):
Лучший оригинальный саундтрек
Сатурн, 2005 год
Номинации (1):
Лучший актер (Кристиан Бэйл)

MediaInfo

Общее
Полное имя : D:\Video\Mashinist.2004.DUAL.BDRip.XviD.AC3.-HQCLUB\Mashinist.2004.DUAL.BDRip.XviD.AC3.-HQCLUB.avi
Формат : AVI
Формат/Информация : Audio Video Interleave
Профиль формата : OpenDML
Размер файла : 2,18 Гбайт
Продолжительность : 1 ч. 41 м.
Общий поток : 3065 Кбит/сек
Название фильма : Mashinist.2004.DUAL.BDRip.XviD.AC3.-HQCLUB
Режиссёр : Orbit
Программа кодирования : VirtualDubMod 1.5.10.2 (build 2542/release)
Правообладатель : hqclub.net
Примечание : 08.07.2010
Видео
Идентификатор : 0
Формат : MPEG-4 Visual
Профиль формата : Advanced Simple@L5
Параметр BVOP формата : 1
Параметр QPel формата : Нет
Параметр GMC формата : Без точки перехода
Параметр матрицы формата : Выборочная
Идентификатор кодека : XVID
Идентификатор кодека/Подсказка : XviD
Продолжительность : 1 ч. 41 м.
Битрейт : 2152 Кбит/сек
Ширина : 720 пикселей
Высота : 304 пикселя
Соотношение сторон : 2,35:1
Частота кадров : 23,976 кадра/сек
Цветовое пространство : YUV
Субдискретизация насыщенности : 4:2:0
Битовая глубина : 8 бит
Тип развёртки : Прогрессивная
Метод сжатия : С потерями
Бит/(Пиксели*Кадры) : 0.410
Размер потока : 1,53 Гбайт (70%)
Библиотека кодирования : XviD 1.2.1 (UTC 2008-12-04)
Аудио #1
Идентификатор : 1
Формат : AC-3
Формат/Информация : Audio Coding 3
Расширение режима : CM (complete main)
Параметр Endianness формата : Big
Идентификатор кодека : 2000
Продолжительность : 1 ч. 41 м.
Вид битрейта : Постоянный
Битрейт : 448 Кбит/сек
Каналы : 6 каналов
Расположение каналов : Front: L C R, Side: L R, LFE
Частота : 48,0 КГц
Битовая глубина : 16 бит
Метод сжатия : С потерями
Размер потока : 327 Мбайт (15%)
Выравнивание : Разделение по промежуткам
Продолжительность промежутка : 42 мс. (1,00 видеокадр)
Время предзагрузки промежутка : 500 мс.
Аудио #2
Идентификатор : 2
Формат : AC-3
Формат/Информация : Audio Coding 3
Расширение режима : CM (complete main)
Параметр Endianness формата : Big
Идентификатор кодека : 2000
Продолжительность : 1 ч. 41 м.
Вид битрейта : Постоянный
Битрейт : 448 Кбит/сек
Каналы : 6 каналов
Расположение каналов : Front: L C R, Side: L R, LFE
Частота : 48,0 КГц
Битовая глубина : 16 бит
Метод сжатия : С потерями
Размер потока : 327 Мбайт (15%)
Выравнивание : Разделение по промежуткам
Продолжительность промежутка : 42 мс. (1,00 видеокадр)
Время предзагрузки промежутка : 500 мс.


Показать сообщения:    

Текущее время: 11-Дек 06:08

Часовой пояс: UTC ± 0


Вы не можете начинать темы
Вы не можете отвечать на сообщения
Вы не можете редактировать свои сообщения
Вы не можете удалять свои сообщения
Вы не можете голосовать в опросах
Вы не можете прикреплять файлы к сообщениям
Вы не можете скачивать файлы

!ВНИМАНИЕ!
Сайт не предоставляет электронные версии произведений, а занимается лишь коллекционированием и каталогизацией ссылок, присылаемых и публикуемых на форуме нашими читателями. Если вы являетесь правообладателем какого-либо представленного материала и не желаете, чтобы ссылка на него находилась в нашем каталоге, свяжитесь с нами, и мы незамедлительно удалим ее. Файлы для обмена на трекере предоставлены пользователями сайта, и администрация не несет ответственности за их содержание. Просьба не заливать файлы, защищенные авторскими правами, а также файлы нелегального содержания!