Важное объявление!
У Нас Все раздачи мультитрекерные, при нуле пиров в релизах, можете смело вставать на закачку!
 
Автор Сообщение

HUNTER

Стаж:
4 года 11 месяцев
Сообщений:
66019

Репутация: 101

[+] [-]
Вне форума [Профиль] [ЛС]

Машина смерти / Death Machine / Расширенная версия / Extended Cut
Страна: Великобритания
Студия: Fugitive Features
Жанр: Ужасы, фантастика, боевик, триллер
Год выпуска: 1994
Продолжительность: 02:02:05
Перевод 1: Авторский (одноголосый закадровый) Сергей Визгунов
Перевод 2: Авторский (одноголосый закадровый) Сергей Кузнецов
Cубтитры: русские (внешние)
Оригинальная аудиодорожка: английский
Режиссер: Стивен Норрингтон / Stephen Norrington
В ролях: Брэд Дуриф, Эли Пугет, Уильям Хуткинс, Джон Шэриан, Мартин МакДугалл, Андреас Виснивски, Ричард Брэйк, Алекс Брукс, Стюарт Ст. Пол, Джеки Совирис
Описание: Боевой робот, запрограммированный только на уничтожение, вышел из-под контроля. Пульт управления этим чудовищем оказался в руках безумца-маньяка, ощутившего полную власть над людьми. Перед этим стальным чудовищем нет преград: огневые заслоны, бетонные стены, бронированные двери преодолеваются им без всяких усилий. Противостоять этому стальному монстру может только киберсолдат, в которого превращается один из преследуемых.
Дополнительная информация:
Автор релиза - ylnian
Автор русских субтитров - Sтраwный Мужыkk, редактирование - ylnian
Источник - Blu-Ray (AUT) - за исходник спасибо Юрай с е180
Сохранены чаптеры с оригинального Blu-Ray


Сэмпл: https://yadi.sk/i/cvT5l2T7snzjp
Качество видео: BDRemux 1080p
Формат видео: MKV
Видео: MPEG-4, 1920x1080, ~15500 kbps, 24.000 fps
Аудио 1: Русский AC3, 48000 Гц, 2ch, 192 kbps - AVO (Визгунов)
Аудио 2: Русский AC3, 48000 Гц, 2ch, 192 kbps - AVO (Кузнецов)
Аудио 3: Английский DTS-HD MA 5.1, 48 kHz, 16 bit, 2343 kbps (DTS Core: 5.1 / 48 kHz / 1509 kbps / 16-bit)
Формат субтитров: softsub (SRT)

MediaInfo

Общее
Уникальный идентификатор : 215448055051154114961655791844104989775 (0xA215C93BC5AC16CCB068EA127E1DEC4F)
Полное имя : B:\Death.Machine.1994.BDRemux-ylnian.mkv
Формат : Matroska
Версия формата : Version 4 / Version 2
Размер файла : 15,5 Гбайт
Продолжительность : 2 ч. 2 м.
Режим общего битрейта : Переменный
Общий поток : 18,2 Мбит/сек
Название фильма : Death.Machine.1994.BDRemux-ylnian
Дата кодирования : UTC 2016-06-24 08:15:02
Программа кодирования : mkvmerge v9.2.0 ('Photograph') 64bit
Библиотека кодирования : libebml v1.3.3 + libmatroska v1.4.4
Видео
Идентификатор : 1
Формат : AVC
Формат/Информация : Advanced Video Codec
Профиль формата : High@L4.1
Параметр CABAC формата : Да
Параметр ReFrames формата : 4 кадра
Параметр GOP формата : M=3, N=24
Идентификатор кодека : V_MPEG4/ISO/AVC
Продолжительность : 2 ч. 2 м.
Вид битрейта : Переменный
Битрейт : 15,5 Мбит/сек
Максимальный битрейт : 30,0 Мбит/сек
Ширина : 1920 пикселей
Высота : 1080 пикселей
Соотношение сторон : 16:9
Режим частоты кадров : Постоянный
Частота кадров : 24,000 кадра/сек
Стандарт вещания : NTSC
Цветовое пространство : YUV
Субдискретизация насыщенности : 4:2:0
Битовая глубина : 8 бит
Тип развёртки : Прогрессивная
Бит/(Пиксели*Кадры) : 0.311
Размер потока : 13,2 Гбайт (85%)
Заголовок : Death.Machine.1994.BDRemux-ylnian
Язык : English
Default : Да
Forced : Да
Цветовой диапазон : Limited
Основные цвета : BT.709
Характеристики трансфера : BT.709
Коэффициенты матрицы : BT.709
Аудио #1
Идентификатор : 2
Формат : AC-3
Формат/Информация : Audio Coding 3
Расширение режима : CM (complete main)
Параметр Endianness формата : Big
Идентификатор кодека : A_AC3
Продолжительность : 2 ч. 2 м.
Вид битрейта : Постоянный
Битрейт : 192 Кбит/сек
Каналы : 2 канала
Расположение каналов : Front: L R
Частота : 48,0 КГц
Частота кадров : 31,250 кадров/сек (1536 spf)
Метод сжатия : С потерями
Размер потока : 168 Мбайт (1%)
Заголовок : AVO (Vizgunov) AC3 2.0 192 kbps
Язык : Russian
Default : Да
Forced : Да
Аудио #2
Идентификатор : 3
Формат : AC-3
Формат/Информация : Audio Coding 3
Расширение режима : CM (complete main)
Параметр Endianness формата : Big
Идентификатор кодека : A_AC3
Продолжительность : 2 ч. 2 м.
Вид битрейта : Постоянный
Битрейт : 192 Кбит/сек
Каналы : 2 канала
Расположение каналов : Front: L R
Частота : 48,0 КГц
Частота кадров : 31,250 кадров/сек (1536 spf)
Метод сжатия : С потерями
Размер потока : 168 Мбайт (1%)
Заголовок : AVO (Kuznecov) AC3 2.0 192 kbps
Язык : Russian
Default : Нет
Forced : Нет
Аудио #3
Идентификатор : 4
Формат : DTS
Формат/Информация : Digital Theater Systems
Профиль формата : MA / Core
Режим : 16
Параметр Endianness формата : Big
Идентификатор кодека : A_DTS
Продолжительность : 2 ч. 2 м.
Вид битрейта : Переменный / Постоянный
Битрейт : 2343 Кбит/сек / 1509 Кбит/сек
Каналы : 6 каналов
Расположение каналов : Front: L C R, Side: L R, LFE
Частота : 48,0 КГц
Частота кадров : 93,750 кадра/сек (512 spf)
Битовая глубина : 16 бит
Метод сжатия : Без потерь / Lossy
Размер потока : 2,00 Гбайт (13%)
Заголовок : DTS-HD 5.1
Язык : English
Default : Нет
Forced : Нет
Текст
Идентификатор : 5
Формат : UTF-8
Идентификатор кодека : S_TEXT/UTF8
Идентификатор кодека/Информация : UTF-8 Plain Text
Продолжительность : 1 ч. 55 м.
Битрейт : 63 бит/сек
Count of elements : 973
Размер потока : 53,6 Кбайт (0%)
Язык : Russian
Default : Нет
Forced : Нет
Меню
00:00:00.000 : en:00:00:00.000
00:05:46.583 : en:00:05:46.583
00:11:17.666 : en:00:11:17.666
00:17:48.791 : en:00:17:48.791
00:20:54.125 : en:00:20:54.125
00:27:02.291 : en:00:27:02.291
00:31:21.333 : en:00:31:21.333
00:39:12.875 : en:00:39:12.875
00:42:42.958 : en:00:42:42.958
00:46:45.791 : en:00:46:45.791
00:51:34.791 : en:00:51:34.791
00:58:40.500 : en:00:58:40.500
01:03:46.666 : en:01:03:46.666
01:08:06.291 : en:01:08:06.291
01:13:25.666 : en:01:13:25.666
01:17:37.708 : en:01:17:37.708
01:22:53.875 : en:01:22:53.875
01:28:37.000 : en:01:28:37.000
01:35:02.041 : en:01:35:02.041
01:42:27.458 : en:01:42:27.458
01:48:39.083 : en:01:48:39.083
01:56:02.125 : en:01:56:02.125

Скриншот c названием фильма

Скриншоты


_________________
Показать сообщения:    

Текущее время: Сегодня 03:57

Часовой пояс: GMT



Вы не можете начинать темы
Вы не можете отвечать на сообщения
Вы не можете редактировать свои сообщения
Вы не можете удалять свои сообщения
Вы не можете голосовать в опросах
Вы не можете прикреплять файлы к сообщениям
Вы не можете скачивать файлы