Ивановский Торрент трекер
Яндекс.Погода
 

[Цитировать]
HUNTER

Маша и Медведь -Год выпуска: 2009-2011
Страна: Россия
Жанр: Мультфильм
Продолжительность серии: 14 из 14 Серий ~ 00:07:00
Режиссер: Олег Кузовков, Олег Ужинов, Денис Червяцов
В ролях: Алина Кукушкина, Эдуард Назаров, Борис Кутневич-Описание: Этот диск дарит вам новые встречи с героями нового детского анимационного сериала "Маша и Медведь" - проказницей Машей и добрым Медведем. К полюбившимся взрослым и детям первым сериям добавлены новые - "С волками жить…" и "Позвони мне, позвони". Красивые, музыкальные и смешные мультфильмы понравятся всем - мальчишкам и девчонкам, папам и мамам, дедушкам и бабушкам! А также караоке с Машей.-Семпл: Скачать-Качество: BDRip 1080p
Формат: TS
Видео: MPEG Video at ~25 Мбит/сек 1920 x 1080 (1.778) at 30.000 fps
Аудио: AC-3 at ~512 Кбит/сек 2 канала(ов), 48,0 КГц
Субтитры: отсутствуют-

Список Серий и Бонусов

Список серий:
1. Первая встреча
2. До весны не будить
3. Раз, два, три - елочка гори!
4. Весна пришла
5. Ловись, рыбка!
6. Следы невиданных зверей
7. С волками жить...
8. Позвони мне, позвони!
9.День варенья
10.Праздник на льду
11.Первый раз в первый класс
12.Граница на замке
13.Кто не спрятался я не виноват
14.Лыжню
Бонусы:
1. Новогодняя песенка
2. Песенка про дружбу
3. Песенка про следы

Подробные технические данные

Бонусы

Новогодняя песенка

Общее
Идентификатор : 1 (0x1)
Формат : MPEG-TS
Размер файла : 493 Мбайт
Продолжительность : 3 м. 3 с.
Общий поток : 22,6 Мбит/сек
Видео
Идентификатор : 256 (0x100)
Идентификатор меню : 1 (0x1)
Формат : MPEG Video
Версия формата : Version 2
Профиль формата : Main@High
Параметр BVOP формата : Нет
Параметр матрицы формата : По умолчанию
Идентификатор кодека : 2
Продолжительность : 3 м. 16 с.
Вид битрейта : Переменный
Битрейт : 20,9 Мбит/сек
Ширина : 1920 пикс.
Высота : 1080 пикс.
Соотношение сторон : 16:9
Частота кадров : 30,000 кадр/сек
Цветовое пространство : YUV
Подвыборка цветности : 4:2:0
Битовая глубина : 8 бит
Тип развёртки : Прогрессивная
Метод сжатия : С потерями
Бит/(Пиксели*Кадры) : 0.336
Размер потока : 489 Мбайт (99%)
Аудио
Идентификатор : 257 (0x101)
Идентификатор меню : 1 (0x1)
Формат : AC-3
Формат/Информация : Audio Coding 3
Расширение режима : CM (complete main)
Идентификатор кодека : 129
Продолжительность : 3 м. 15 с.
Вид битрейта : Постоянный
Битрейт : 512 Кбит/сек
Канал(ы) : 2 канала(ов)
Расположение каналов : Front: L R
Частота : 48,0 КГц
Битовая глубина : 16 бит
Метод сжатия : С потерями
Размер потока : 12,0 Мбайт (2%)
Меню
Идентификатор : 4095 (0xFFF)
Идентификатор меню : 1 (0x1)
Продолжительность : 3 м. 3 с.
Список : 256 (0x100) (MPEG Video) / 257 (0x101) (AC-3)
Название сервиса : Service01
Поставщик сервиса : FFmpeg
Тип сервиса : digital television

Песенка про дружбу

Общее
Идентификатор : 1 (0x1)
Формат : MPEG-TS
Размер файла : 192 Мбайт
Продолжительность : 1 м. 11 с.
Общий поток : 22,6 Мбит/сек
Видео
Идентификатор : 256 (0x100)
Идентификатор меню : 1 (0x1)
Формат : MPEG Video
Версия формата : Version 2
Профиль формата : Main@High
Параметр BVOP формата : Нет
Параметр матрицы формата : По умолчанию
Идентификатор кодека : 2
Продолжительность : 3 м. 23 с.
Вид битрейта : Переменный
Битрейт : 20,9 Мбит/сек
Ширина : 1920 пикс.
Высота : 1080 пикс.
Соотношение сторон : 16:9
Частота кадров : 30,000 кадр/сек
Цветовое пространство : YUV
Подвыборка цветности : 4:2:0
Битовая глубина : 8 бит
Тип развёртки : Прогрессивная
Метод сжатия : С потерями
Бит/(Пиксели*Кадры) : 0.336
Размер потока : 509 Мбайт
Аудио
Идентификатор : 257 (0x101)
Идентификатор меню : 1 (0x1)
Формат : AC-3
Формат/Информация : Audio Coding 3
Расширение режима : CM (complete main)
Идентификатор кодека : 129
Продолжительность : 3 м. 23 с.
Вид битрейта : Постоянный
Битрейт : 512 Кбит/сек
Канал(ы) : 2 канала(ов)
Расположение каналов : Front: L R
Частота : 48,0 КГц
Битовая глубина : 16 бит
Метод сжатия : С потерями
Размер потока : 12,4 Мбайт (6%)
Меню
Идентификатор : 4095 (0xFFF)
Идентификатор меню : 1 (0x1)
Продолжительность : 1 м. 11 с.
Список : 256 (0x100) (MPEG Video) / 257 (0x101) (AC-3)
Название сервиса : Service01
Поставщик сервиса : FFmpeg
Тип сервиса : digital television

Песенка про следы

Общее
Идентификатор : 1 (0x1)
Формат : MPEG-TS
Размер файла : 114 Мбайт
Продолжительность : 42 с.
Общий поток : 22,6 Мбит/сек
Видео
Идентификатор : 256 (0x100)
Идентификатор меню : 1 (0x1)
Формат : MPEG Video
Версия формата : Version 2
Профиль формата : Main@High
Параметр BVOP формата : Нет
Параметр матрицы формата : По умолчанию
Идентификатор кодека : 2
Продолжительность : 1 м. 45 с.
Вид битрейта : Переменный
Битрейт : 20,9 Мбит/сек
Ширина : 1920 пикс.
Высота : 1080 пикс.
Соотношение сторон : 16:9
Частота кадров : 30,000 кадр/сек
Цветовое пространство : YUV
Подвыборка цветности : 4:2:0
Битовая глубина : 8 бит
Тип развёртки : Прогрессивная
Метод сжатия : С потерями
Бит/(Пиксели*Кадры) : 0.336
Размер потока : 262 Мбайт
Аудио
Идентификатор : 257 (0x101)
Идентификатор меню : 1 (0x1)
Формат : AC-3
Формат/Информация : Audio Coding 3
Расширение режима : CM (complete main)
Идентификатор кодека : 129
Продолжительность : 1 м. 44 с.
Вид битрейта : Постоянный
Битрейт : 512 Кбит/сек
Канал(ы) : 2 канала(ов)
Расположение каналов : Front: L R
Частота : 48,0 КГц
Битовая глубина : 16 бит
Метод сжатия : С потерями
Размер потока : 6,41 Мбайт (6%)
Меню
Идентификатор : 4095 (0xFFF)
Идентификатор меню : 1 (0x1)
Продолжительность : 42 с.
Список : 256 (0x100) (MPEG Video) / 257 (0x101) (AC-3)
Название сервиса : Service01
Поставщик сервиса : FFmpeg
Тип сервиса : digital television

Маша и медведь

1. Первая встреча

Общее
Идентификатор : 1 (0x1)
Формат : MPEG-TS
Размер файла : 1014 Мбайт
Продолжительность : 6 м. 16 с.
Общий поток : 22,6 Мбит/сек
Видео
Идентификатор : 256 (0x100)
Идентификатор меню : 1 (0x1)
Формат : MPEG Video
Версия формата : Version 2
Профиль формата : Main@High
Параметр BVOP формата : Нет
Параметр матрицы формата : По умолчанию
Параметры GOP формата : M=1, N=12
Идентификатор кодека : 2
Продолжительность : 6 м. 53 с.
Вид битрейта : Переменный
Битрейт : 20,9 Мбит/сек
Ширина : 1920 пикс.
Высота : 1080 пикс.
Соотношение сторон : 16:9
Частота кадров : 30,000 кадр/сек
Цветовое пространство : YUV
Подвыборка цветности : 4:2:0
Битовая глубина : 8 бит
Тип развёртки : Прогрессивная
Метод сжатия : С потерями
Бит/(Пиксели*Кадры) : 0.336
Размер потока : 1,01 Гбайт
Аудио
Идентификатор : 257 (0x101)
Идентификатор меню : 1 (0x1)
Формат : AC-3
Формат/Информация : Audio Coding 3
Расширение режима : CM (complete main)
Идентификатор кодека : 129
Продолжительность : 6 м. 52 с.
Вид битрейта : Постоянный
Битрейт : 512 Кбит/сек
Канал(ы) : 2 канала(ов)
Расположение каналов : Front: L R
Частота : 48,0 КГц
Битовая глубина : 16 бит
Метод сжатия : С потерями
Размер потока : 25,2 Мбайт (2%)
Меню
Идентификатор : 4095 (0xFFF)
Идентификатор меню : 1 (0x1)
Продолжительность : 6 м. 16 с.
Список : 256 (0x100) (MPEG Video) / 257 (0x101) (AC-3)
Название сервиса : Service01
Поставщик сервиса : FFmpeg
Тип сервиса : digital television

2. До весны не будить

Общее
Идентификатор : 1 (0x1)
Формат : MPEG-TS
Размер файла : 606 Мбайт
Продолжительность : 3 м. 45 с.
Общий поток : 22,6 Мбит/сек
Видео
Идентификатор : 256 (0x100)
Идентификатор меню : 1 (0x1)
Формат : MPEG Video
Версия формата : Version 2
Профиль формата : Main@High
Параметр BVOP формата : Нет
Параметр матрицы формата : По умолчанию
Параметры GOP формата : M=1, N=12
Идентификатор кодека : 2
Продолжительность : 6 м. 53 с.
Вид битрейта : Переменный
Битрейт : 20,9 Мбит/сек
Ширина : 1920 пикс.
Высота : 1080 пикс.
Соотношение сторон : 16:9
Частота кадров : 30,000 кадр/сек
Цветовое пространство : YUV
Подвыборка цветности : 4:2:0
Битовая глубина : 8 бит
Тип развёртки : Прогрессивная
Метод сжатия : С потерями
Бит/(Пиксели*Кадры) : 0.336
Размер потока : 1,01 Гбайт
Аудио
Идентификатор : 257 (0x101)
Идентификатор меню : 1 (0x1)
Формат : AC-3
Формат/Информация : Audio Coding 3
Расширение режима : CM (complete main)
Идентификатор кодека : 129
Продолжительность : 6 м. 53 с.
Вид битрейта : Постоянный
Битрейт : 512 Кбит/сек
Канал(ы) : 2 канала(ов)
Расположение каналов : Front: L R
Частота : 48,0 КГц
Битовая глубина : 16 бит
Метод сжатия : С потерями
Размер потока : 25,2 Мбайт (4%)
Меню
Идентификатор : 4095 (0xFFF)
Идентификатор меню : 1 (0x1)
Продолжительность : 3 м. 45 с.
Список : 256 (0x100) (MPEG Video) / 257 (0x101) (AC-3)
Название сервиса : Service01
Поставщик сервиса : FFmpeg
Тип сервиса : digital television

3. Раз, два, три - елочка гори!

Общее
Идентификатор : 1 (0x1)
Формат : MPEG-TS
Размер файла : 871 Мбайт
Продолжительность : 5 м. 23 с.
Общий поток : 22,6 Мбит/сек
Видео
Идентификатор : 256 (0x100)
Идентификатор меню : 1 (0x1)
Формат : MPEG Video
Версия формата : Version 2
Профиль формата : Main@High
Параметр BVOP формата : Нет
Параметр матрицы формата : По умолчанию
Параметры GOP формата : M=1, N=12
Идентификатор кодека : 2
Продолжительность : 8 м. 6 с.
Вид битрейта : Переменный
Битрейт : 20,9 Мбит/сек
Ширина : 1920 пикс.
Высота : 1080 пикс.
Соотношение сторон : 16:9
Частота кадров : 30,000 кадр/сек
Цветовое пространство : YUV
Подвыборка цветности : 4:2:0
Битовая глубина : 8 бит
Тип развёртки : Прогрессивная
Метод сжатия : С потерями
Бит/(Пиксели*Кадры) : 0.336
Размер потока : 1,19 Гбайт
Аудио
Идентификатор : 257 (0x101)
Идентификатор меню : 1 (0x1)
Формат : AC-3
Формат/Информация : Audio Coding 3
Расширение режима : CM (complete main)
Идентификатор кодека : 129
Продолжительность : 8 м. 6 с.
Вид битрейта : Постоянный
Битрейт : 512 Кбит/сек
Канал(ы) : 2 канала(ов)
Расположение каналов : Front: L R
Частота : 48,0 КГц
Битовая глубина : 16 бит
Метод сжатия : С потерями
Размер потока : 29,7 Мбайт (3%)
Меню
Идентификатор : 4095 (0xFFF)
Идентификатор меню : 1 (0x1)
Продолжительность : 5 м. 23 с.
Список : 256 (0x100) (MPEG Video) / 257 (0x101) (AC-3)
Название сервиса : Service01
Поставщик сервиса : FFmpeg
Тип сервиса : digital television

4. Весна пришла

Общее
Идентификатор : 1 (0x1)
Формат : MPEG-TS
Размер файла : 1,02 Гбайт
Продолжительность : 6 м. 27 с.
Общий поток : 22,6 Мбит/сек
Видео
Идентификатор : 256 (0x100)
Идентификатор меню : 1 (0x1)
Формат : MPEG Video
Версия формата : Version 2
Профиль формата : Main@High
Параметр BVOP формата : Нет
Параметр матрицы формата : По умолчанию
Параметры GOP формата : M=1, N=12
Идентификатор кодека : 2
Продолжительность : 7 м. 1 с.
Вид битрейта : Переменный
Битрейт : 20,9 Мбит/сек
Ширина : 1920 пикс.
Высота : 1080 пикс.
Соотношение сторон : 16:9
Частота кадров : 30,000 кадр/сек
Цветовое пространство : YUV
Подвыборка цветности : 4:2:0
Битовая глубина : 8 бит
Тип развёртки : Прогрессивная
Метод сжатия : С потерями
Бит/(Пиксели*Кадры) : 0.336
Размер потока : 1,03 Гбайт
Аудио
Идентификатор : 257 (0x101)
Идентификатор меню : 1 (0x1)
Формат : AC-3
Формат/Информация : Audio Coding 3
Расширение режима : CM (complete main)
Идентификатор кодека : 129
Продолжительность : 7 м. 1 с.
Вид битрейта : Постоянный
Битрейт : 512 Кбит/сек
Канал(ы) : 2 канала(ов)
Расположение каналов : Front: L R
Частота : 48,0 КГц
Битовая глубина : 16 бит
Метод сжатия : С потерями
Размер потока : 25,7 Мбайт (2%)
Меню
Идентификатор : 4095 (0xFFF)
Идентификатор меню : 1 (0x1)
Продолжительность : 6 м. 27 с.
Список : 256 (0x100) (MPEG Video) / 257 (0x101) (AC-3)
Название сервиса : Service01
Поставщик сервиса : FFmpeg
Тип сервиса : digital television

5. Ловись, рыбка!

Общее
Идентификатор : 1 (0x1)
Формат : MPEG-TS
Размер файла : 1,02 Гбайт
Продолжительность : 6 м. 27 с.
Общий поток : 22,6 Мбит/сек
Видео
Идентификатор : 256 (0x100)
Идентификатор меню : 1 (0x1)
Формат : MPEG Video
Версия формата : Version 2
Профиль формата : Main@High
Параметр BVOP формата : Нет
Параметр матрицы формата : По умолчанию
Параметры GOP формата : M=1, N=12
Идентификатор кодека : 2
Продолжительность : 6 м. 55 с.
Вид битрейта : Переменный
Битрейт : 20,9 Мбит/сек
Ширина : 1920 пикс.
Высота : 1080 пикс.
Соотношение сторон : 16:9
Частота кадров : 30,000 кадр/сек
Цветовое пространство : YUV
Подвыборка цветности : 4:2:0
Битовая глубина : 8 бит
Тип развёртки : Прогрессивная
Метод сжатия : С потерями
Бит/(Пиксели*Кадры) : 0.336
Размер потока : 1,01 Гбайт (99%)
Аудио
Идентификатор : 257 (0x101)
Идентификатор меню : 1 (0x1)
Формат : AC-3
Формат/Информация : Audio Coding 3
Расширение режима : CM (complete main)
Идентификатор кодека : 129
Продолжительность : 6 м. 55 с.
Вид битрейта : Постоянный
Битрейт : 512 Кбит/сек
Канал(ы) : 2 канала(ов)
Расположение каналов : Front: L R
Частота : 48,0 КГц
Битовая глубина : 16 бит
Метод сжатия : С потерями
Размер потока : 25,4 Мбайт (2%)
Меню
Идентификатор : 4095 (0xFFF)
Идентификатор меню : 1 (0x1)
Продолжительность : 6 м. 27 с.
Список : 256 (0x100) (MPEG Video) / 257 (0x101) (AC-3)
Название сервиса : Service01
Поставщик сервиса : FFmpeg
Тип сервиса : digital television

6. Следы невиданных зверей

Общее
Идентификатор : 1 (0x1)
Формат : MPEG-TS
Размер файла : 917 Мбайт
Продолжительность : 5 м. 40 с.
Общий поток : 22,6 Мбит/сек
Видео
Идентификатор : 256 (0x100)
Идентификатор меню : 1 (0x1)
Формат : MPEG Video
Версия формата : Version 2
Профиль формата : Main@High
Параметр BVOP формата : Нет
Параметр матрицы формата : По умолчанию
Параметры GOP формата : M=1, N=12
Идентификатор кодека : 2
Продолжительность : 7 м. 17 с.
Вид битрейта : Переменный
Битрейт : 20,9 Мбит/сек
Ширина : 1920 пикс.
Высота : 1080 пикс.
Соотношение сторон : 16:9
Частота кадров : 30,000 кадр/сек
Цветовое пространство : YUV
Подвыборка цветности : 4:2:0
Битовая глубина : 8 бит
Тип развёртки : Прогрессивная
Метод сжатия : С потерями
Бит/(Пиксели*Кадры) : 0.336
Размер потока : 1,07 Гбайт
Аудио
Идентификатор : 257 (0x101)
Идентификатор меню : 1 (0x1)
Формат : AC-3
Формат/Информация : Audio Coding 3
Расширение режима : CM (complete main)
Идентификатор кодека : 129
Продолжительность : 7 м. 17 с.
Вид битрейта : Постоянный
Битрейт : 512 Кбит/сек
Канал(ы) : 2 канала(ов)
Расположение каналов : Front: L R
Частота : 48,0 КГц
Битовая глубина : 16 бит
Метод сжатия : С потерями
Размер потока : 26,7 Мбайт (3%)
Меню
Идентификатор : 4095 (0xFFF)
Идентификатор меню : 1 (0x1)
Продолжительность : 5 м. 40 с.
Список : 256 (0x100) (MPEG Video) / 257 (0x101) (AC-3)
Название сервиса : Service01
Поставщик сервиса : FFmpeg
Тип сервиса : digital television

7. С волками жить...

Общее
Идентификатор : 1 (0x1)
Формат : MPEG-TS
Размер файла : 1,03 Гбайт
Продолжительность : 6 м. 32 с.
Общий поток : 22,6 Мбит/сек
Видео
Идентификатор : 256 (0x100)
Идентификатор меню : 1 (0x1)
Формат : MPEG Video
Версия формата : Version 2
Профиль формата : Main@High
Параметр BVOP формата : Нет
Параметр матрицы формата : По умолчанию
Параметры GOP формата : M=1, N=12
Идентификатор кодека : 2
Продолжительность : 7 м. 13 с.
Вид битрейта : Переменный
Битрейт : 20,9 Мбит/сек
Ширина : 1920 пикс.
Высота : 1080 пикс.
Соотношение сторон : 16:9
Частота кадров : 30,000 кадр/сек
Цветовое пространство : YUV
Подвыборка цветности : 4:2:0
Битовая глубина : 8 бит
Тип развёртки : Прогрессивная
Метод сжатия : С потерями
Бит/(Пиксели*Кадры) : 0.336
Размер потока : 1,06 Гбайт
Аудио
Идентификатор : 257 (0x101)
Идентификатор меню : 1 (0x1)
Формат : AC-3
Формат/Информация : Audio Coding 3
Расширение режима : CM (complete main)
Идентификатор кодека : 129
Продолжительность : 7 м. 13 с.
Вид битрейта : Постоянный
Битрейт : 512 Кбит/сек
Канал(ы) : 2 канала(ов)
Расположение каналов : Front: L R
Частота : 48,0 КГц
Битовая глубина : 16 бит
Метод сжатия : С потерями
Размер потока : 26,4 Мбайт (3%)
Меню
Идентификатор : 4095 (0xFFF)
Идентификатор меню : 1 (0x1)
Продолжительность : 6 м. 32 с.
Список : 256 (0x100) (MPEG Video) / 257 (0x101) (AC-3)
Название сервиса : Service01
Поставщик сервиса : FFmpeg
Тип сервиса : digital television

8. Позвони мне, позвони!

Общее
Идентификатор : 1 (0x1)
Формат : MPEG-TS
Размер файла : 1,03 Гбайт
Продолжительность : 6 м. 31 с.
Общий поток : 22,6 Мбит/сек
Видео
Идентификатор : 256 (0x100)
Идентификатор меню : 1 (0x1)
Формат : MPEG Video
Версия формата : Version 2
Профиль формата : Main@High
Параметр BVOP формата : Нет
Параметр матрицы формата : По умолчанию
Параметры GOP формата : M=1, N=12
Идентификатор кодека : 2
Продолжительность : 7 м. 11 с.
Вид битрейта : Переменный
Битрейт : 20,9 Мбит/сек
Ширина : 1920 пикс.
Высота : 1080 пикс.
Соотношение сторон : 16:9
Частота кадров : 30,000 кадр/сек
Цветовое пространство : YUV
Подвыборка цветности : 4:2:0
Битовая глубина : 8 бит
Тип развёртки : Прогрессивная
Метод сжатия : С потерями
Бит/(Пиксели*Кадры) : 0.336
Размер потока : 1,05 Гбайт
Аудио
Идентификатор : 257 (0x101)
Идентификатор меню : 1 (0x1)
Формат : AC-3
Формат/Информация : Audio Coding 3
Расширение режима : CM (complete main)
Идентификатор кодека : 129
Продолжительность : 7 м. 11 с.
Вид битрейта : Постоянный
Битрейт : 512 Кбит/сек
Канал(ы) : 2 канала(ов)
Расположение каналов : Front: L R
Частота : 48,0 КГц
Битовая глубина : 16 бит
Метод сжатия : С потерями
Размер потока : 26,3 Мбайт (2%)
Меню
Идентификатор : 4095 (0xFFF)
Идентификатор меню : 1 (0x1)
Продолжительность : 6 м. 31 с.
Список : 256 (0x100) (MPEG Video) / 257 (0x101) (AC-3)
Название сервиса : Service01
Поставщик сервиса : FFmpeg
Тип сервиса : digital television

9.День варенья

Общее
Идентификатор : 0 (0x0)
Формат : MPEG-TS
Размер файла : 1,75 Гбайт
Продолжительность : 6 м. 50 с.
Общий поток : 36,6 Мбит/сек
Видео
Идентификатор : 481 (0x1E1)
Идентификатор меню : 1 (0x1)
Формат : MPEG Video
Версия формата : Version 2
Профиль формата : High@High
Параметр BVOP формата : Да
Параметр матрицы формата : По умолчанию
Параметры GOP формата : M=3, N=15
Идентификатор кодека : 2
Продолжительность : 6 м. 50 с.
Вид битрейта : Постоянный
Битрейт : 34,3 Мбит/сек
Номинальный битрейт : 30,0 Мбит/сек
Ширина : 1920 пикс.
Высота : 1080 пикс.
Соотношение сторон : 16:9
Частота кадров : 24,000 кадр/сек
Цветовое пространство : YUV
Подвыборка цветности : 4:2:0
Битовая глубина : 8 бит
Тип развёртки : Чересстрочная
Порядок развёртки : Нижнее поле первое
Метод сжатия : С потерями
Бит/(Пиксели*Кадры) : 0.689
Размер потока : 1,64 Гбайт (94%)
Аудио
Идентификатор : 482 (0x1E2)
Идентификатор меню : 1 (0x1)
Формат : AC-3
Формат/Информация : Audio Coding 3
Расширение режима : CM (complete main)
Идентификатор кодека : 129
Продолжительность : 6 м. 50 с.
Вид битрейта : Постоянный
Битрейт : 512 Кбит/сек
Канал(ы) : 2 канала(ов)
Расположение каналов : Front: L R
Частота : 48,0 КГц
Битовая глубина : 16 бит
Метод сжатия : С потерями
Размер потока : 25,0 Мбайт (1%)
Язык : English

10.Праздник на льду

Общее
Идентификатор : 0 (0x0)
Формат : MPEG-TS
Размер файла : 1,16 Гбайт
Продолжительность : 6 м. 52 с.
Общий поток : 24,2 Мбит/сек
Видео
Идентификатор : 481 (0x1E1)
Идентификатор меню : 1 (0x1)
Формат : MPEG Video
Версия формата : Version 2
Профиль формата : High@High
Параметр BVOP формата : Да
Параметр матрицы формата : По умолчанию
Параметры GOP формата : M=3, N=15
Идентификатор кодека : 2
Продолжительность : 6 м. 51 с.
Вид битрейта : Постоянный
Битрейт : 22,8 Мбит/сек
Номинальный битрейт : 20,0 Мбит/сек
Ширина : 1280 пикс.
Высота : 720 пикс.
Соотношение сторон : 16:9
Частота кадров : 24,000 кадр/сек
Цветовое пространство : YUV
Подвыборка цветности : 4:2:0
Битовая глубина : 8 бит
Тип развёртки : Чересстрочная
Порядок развёртки : Нижнее поле первое
Метод сжатия : С потерями
Бит/(Пиксели*Кадры) : 1.033
Размер потока : 1,10 Гбайт (94%)
Аудио
Идентификатор : 482 (0x1E2)
Идентификатор меню : 1 (0x1)
Формат : AC-3
Формат/Информация : Audio Coding 3
Расширение режима : CM (complete main)
Идентификатор кодека : 129
Продолжительность : 6 м. 51 с.
Вид битрейта : Постоянный
Битрейт : 192 Кбит/сек
Канал(ы) : 2 канала(ов)
Расположение каналов : Front: L R
Частота : 48,0 КГц
Битовая глубина : 16 бит
Метод сжатия : С потерями
Размер потока : 9,43 Мбайт (1%)
Язык : English

11.Первый раз в первый класс

Общее
Идентификатор : 0 (0x0)
Формат : MPEG-TS
Размер файла : 1,21 Гбайт
Продолжительность : 7 м. 7 с.
Общий поток : 24,2 Мбит/сек
Видео
Идентификатор : 481 (0x1E1)
Идентификатор меню : 1 (0x1)
Формат : MPEG Video
Версия формата : Version 2
Профиль формата : High@High
Параметр BVOP формата : Да
Параметр матрицы формата : По умолчанию
Параметры GOP формата : M=3, N=15
Идентификатор кодека : 2
Продолжительность : 7 м. 7 с.
Вид битрейта : Постоянный
Битрейт : 22,8 Мбит/сек
Номинальный битрейт : 20,0 Мбит/сек
Ширина : 1280 пикс.
Высота : 720 пикс.
Соотношение сторон : 16:9
Частота кадров : 24,000 кадр/сек
Цветовое пространство : YUV
Подвыборка цветности : 4:2:0
Битовая глубина : 8 бит
Тип развёртки : Чересстрочная
Порядок развёртки : Нижнее поле первое
Метод сжатия : С потерями
Бит/(Пиксели*Кадры) : 1.033
Размер потока : 1,14 Гбайт (94%)
Аудио
Идентификатор : 482 (0x1E2)
Идентификатор меню : 1 (0x1)
Формат : AC-3
Формат/Информация : Audio Coding 3
Расширение режима : CM (complete main)
Идентификатор кодека : 129
Продолжительность : 7 м. 7 с.
Вид битрейта : Постоянный
Битрейт : 192 Кбит/сек
Канал(ы) : 2 канала(ов)
Расположение каналов : Front: L R
Частота : 48,0 КГц
Битовая глубина : 16 бит
Метод сжатия : С потерями
Размер потока : 9,79 Мбайт (1%)
Язык : English

12.Граница на замке

Общее
Идентификатор : 0 (0x0)
Формат : MPEG-TS
Размер файла : 1,61 Гбайт
Продолжительность : 6 м. 59 с.
Общий поток : 33,0 Мбит/сек
Видео
Идентификатор : 481 (0x1E1)
Идентификатор меню : 1 (0x1)
Формат : MPEG Video
Версия формата : Version 2
Профиль формата : High@High
Параметр BVOP формата : Да
Параметр матрицы формата : По умолчанию
Параметры GOP формата : M=3, N=15
Идентификатор кодека : 2
Продолжительность : 6 м. 59 с.
Вид битрейта : Постоянный
Битрейт : 30,9 Мбит/сек
Номинальный битрейт : 27,0 Мбит/сек
Ширина : 1920 пикс.
Высота : 1080 пикс.
Соотношение сторон : 16:9
Частота кадров : 24,000 кадр/сек
Цветовое пространство : YUV
Подвыборка цветности : 4:2:0
Битовая глубина : 8 бит
Тип развёртки : Чересстрочная
Порядок развёртки : Нижнее поле первое
Метод сжатия : С потерями
Бит/(Пиксели*Кадры) : 0.620
Размер потока : 1,51 Гбайт (93%)
Аудио
Идентификатор : 482 (0x1E2)
Идентификатор меню : 1 (0x1)
Формат : AC-3
Формат/Информация : Audio Coding 3
Расширение режима : CM (complete main)
Идентификатор кодека : 129
Продолжительность : 6 м. 59 с.
Вид битрейта : Постоянный
Битрейт : 512 Кбит/сек
Канал(ы) : 2 канала(ов)
Расположение каналов : Front: L R
Частота : 48,0 КГц
Битовая глубина : 16 бит
Метод сжатия : С потерями
Размер потока : 25,6 Мбайт (2%)
Язык : English

13.Кто не спрятался я не виноват

Общее
Идентификатор : 0 (0x0)
Формат : MPEG-TS
Размер файла : 1,13 Гбайт
Продолжительность : 6 м. 41 с.
Общий поток : 24,2 Мбит/сек
Видео
Идентификатор : 481 (0x1E1)
Идентификатор меню : 1 (0x1)
Формат : MPEG Video
Версия формата : Version 2
Профиль формата : High@High
Параметр BVOP формата : Да
Параметр матрицы формата : По умолчанию
Параметры GOP формата : M=3, N=15
Идентификатор кодека : 2
Продолжительность : 6 м. 40 с.
Вид битрейта : Постоянный
Битрейт : 22,8 Мбит/сек
Номинальный битрейт : 20,0 Мбит/сек
Ширина : 1280 пикс.
Высота : 720 пикс.
Соотношение сторон : 16:9
Частота кадров : 24,000 кадр/сек
Цветовое пространство : YUV
Подвыборка цветности : 4:2:0
Битовая глубина : 8 бит
Тип развёртки : Чересстрочная
Порядок развёртки : Нижнее поле первое
Метод сжатия : С потерями
Бит/(Пиксели*Кадры) : 1.033
Размер потока : 1,06 Гбайт (94%)
Аудио
Идентификатор : 482 (0x1E2)
Идентификатор меню : 1 (0x1)
Формат : AC-3
Формат/Информация : Audio Coding 3
Расширение режима : CM (complete main)
Идентификатор кодека : 129
Продолжительность : 6 м. 41 с.
Вид битрейта : Постоянный
Битрейт : 192 Кбит/сек
Канал(ы) : 2 канала(ов)
Расположение каналов : Front: L R
Частота : 48,0 КГц
Битовая глубина : 16 бит
Метод сжатия : С потерями
Размер потока : 9,19 Мбайт (1%)
Язык : English

14.Лыжню

Общее
Идентификатор : 0 (0x0)
Формат : MPEG-TS
Размер файла : 1,18 Гбайт
Продолжительность : 6 м. 59 с.
Общий поток : 24,2 Мбит/сек
Видео
Идентификатор : 481 (0x1E1)
Идентификатор меню : 1 (0x1)
Формат : MPEG Video
Версия формата : Version 2
Профиль формата : High@High
Параметр BVOP формата : Да
Параметр матрицы формата : По умолчанию
Параметры GOP формата : M=3, N=15
Идентификатор кодека : 2
Продолжительность : 6 м. 59 с.
Вид битрейта : Постоянный
Битрейт : 22,8 Мбит/сек
Номинальный битрейт : 20,0 Мбит/сек
Ширина : 1280 пикс.
Высота : 720 пикс.
Соотношение сторон : 16:9
Частота кадров : 24,000 кадр/сек
Цветовое пространство : YUV
Подвыборка цветности : 4:2:0
Битовая глубина : 8 бит
Тип развёртки : Чересстрочная
Порядок развёртки : Нижнее поле первое
Метод сжатия : С потерями
Бит/(Пиксели*Кадры) : 1.033
Размер потока : 1,11 Гбайт (94%)
Аудио
Идентификатор : 482 (0x1E2)
Идентификатор меню : 1 (0x1)
Формат : AC-3
Формат/Информация : Audio Coding 3
Расширение режима : CM (complete main)
Идентификатор кодека : 129
Продолжительность : 6 м. 59 с.
Вид битрейта : Постоянный
Битрейт : 192 Кбит/сек
Канал(ы) : 2 канала(ов)
Расположение каналов : Front: L R
Частота : 48,0 КГц
Битовая глубина : 16 бит
Метод сжатия : С потерями
Размер потока : 9,59 Мбайт (1%)
Язык : English

Скринлисты

Бонусы

Новогодняя песенка

Песенка про дружбу

Песенка про следы

Маша и медведь

1. Первая встреча

2. До весны не будить

3. Раз, два, три - елочка гори!

4. Весна пришла

5. Ловись, рыбка!

6. Следы невиданных зверей

7. С волками жить...

8. Позвони мне, позвони!

9.День варенья

10.Праздник на льду

11.Первый раз в первый класс

12.Граница на замке

13.Кто не спрятался я не виноват

14.Лыжню

Скриншоты

Бонусы

Новогодняя песенка

Песенка про дружбу

Песенка про следы

Маша и медведь

1. Первая встреча

2. До весны не будить

3. Раз, два, три - елочка гори!

4. Весна пришла

5. Ловись, рыбка!

6. Следы невиданных зверей

7. С волками жить...

8. Позвони мне, позвони!

9.День варенья

10.Праздник на льду

11.Первый раз в первый класс

12.Граница на замке

13.Кто не спрятался я не виноват

14.Лыжню

-Раздача обновлена дабавленны 9-14 серии-


Показать сообщения:    

Текущее время: 11-Дек 12:58

Часовой пояс: UTC ± 0


Вы не можете начинать темы
Вы не можете отвечать на сообщения
Вы не можете редактировать свои сообщения
Вы не можете удалять свои сообщения
Вы не можете голосовать в опросах
Вы не можете прикреплять файлы к сообщениям
Вы не можете скачивать файлы

!ВНИМАНИЕ!
Сайт не предоставляет электронные версии произведений, а занимается лишь коллекционированием и каталогизацией ссылок, присылаемых и публикуемых на форуме нашими читателями. Если вы являетесь правообладателем какого-либо представленного материала и не желаете, чтобы ссылка на него находилась в нашем каталоге, свяжитесь с нами, и мы незамедлительно удалим ее. Файлы для обмена на трекере предоставлены пользователями сайта, и администрация не несет ответственности за их содержание. Просьба не заливать файлы, защищенные авторскими правами, а также файлы нелегального содержания!