Ивановский Торрент трекер
Яндекс.Погода
 

[Цитировать]
HUNTER

Маша и Медведь
Год выпуска: 2009-2012
Страна: Россия / Animaccord Animation Studio
Жанр: Мультфильм, комедия, семейный
Официальный сайт: masha-imedved.ru
Продолжительность: 25 серий по ~00:07:00
Перевод: Оригинал
Режиссер: Олег Ужинов, Денис Червяцов, Марина Нефедова, Олег Кузовков
Роли озвучивали: Алина Кукушкина, Эдуард Назаров, Борис Кутневич
Субтитры: Нет-Описание: Новое прочтение любимой детской сказки про Машу и Медведя. Сюжет и персонажи этой русской народной сказки знакомы любому ребенку, но характеры их и взаимоотношения сильно изменены – не Маша боится Медведя, скорее он боится осложнений в своей размеренной жизни, которые приносит с собой Маша.- -Качество: BDRip-AVC
Формат: MKV
Видео: H.264, 1024х576, 24,000 fps, ~1869 kbps, 0.132 bit/pixel (для каждой серии)
Аудио#1: AC3, 6 ch., 48 kHz, ~448.00 kbps (серии 1-16)
Аудио#2: AC3, 2 ch., 48 kHz, ~256.00 kbps (серии 17-25)

Список серий:

01. Первая встреча!(00:06:53)
02. До весны не будить!(00:06:53)
03. Раз, два, три! Ёлочка, гори!(00:08:06)
04. Весна пришла!(00:07:01)
05. Ловись рыбка!(00:06:55)
06. Следы невиданных зверей(00:07:17)
07. С волками жить...(00:07:13)
08. Позвони мне, позвони!(00:07:11)
09. День варенья(00:06:50)
10. Праздник на льду(00:06:52)
11. Первый раз в первый класс(00:07:07)
12. Граница на замке(00:06:59)
13. Кто не спрятался, я не виноват(00:06:41)
14. Лыжню!(00:06:59)
15. Будьте здоровы!(00:06:58)
16. Маша + каша(00:06:51)
17. Дальний родственник(00:06:58)
18. Большая стирка(00:06:46)
19. Репетиция оркестра(00:07:13)
20. Усатый полосатый(00:07:14)
21. Один дома(00:07:11)
22. Дышите! Не дышите!(00:07:10)
23. Подкидыш (00:07:13)
24. Приятного аппетита (00:07:12)
25. Фокус-покус (00:07:12)

MediaInfo (1 - 23)

General
Unique ID : 220935457710788335320329054996761984693 (0xA6369F12A4756FCABB1F2F1785F0BEB5)
Format : Matroska
Format version : Version 2
File size : 114 MiB
Duration : 6mn 53s
Overall bit rate : 2 317 Kbps
Movie name : -=POTROKS=-
Encoded date : UTC 2012-02-13 19:19:05
Writing application : mkvmerge v5.2.1 ('A Far Off Place') built on Feb 6 2012 10:08:15
Writing library : libebml v1.2.3 + libmatroska v1.3.0
Video
ID : 1
Format : AVC
Format/Info : Advanced Video Codec
Format profile : High@L4.1
Format settings, CABAC : Yes
Format settings, ReFrames : 7 frames
Codec ID : V_MPEG4/ISO/AVC
Duration : 6mn 53s
Bit rate : 1 869 Kbps
Width : 1 024 pixels
Height : 576 pixels
Display aspect ratio : 16:9
Frame rate : 24.000 fps
Color space : YUV
Chroma subsampling : 4:2:0
Bit depth : 8 bits
Scan type : Progressive
Bits/(Pixel*Frame) : 0.132
Stream size : 89.7 MiB (79%)
Writing library : x264 core 115 r1937 aa21558
Encoding settings : cabac=1 / ref=7 / deblock=1:-2:-1 / analyse=0x3:0x133 / me=umh / subme=10 / psy=1 / psy_rd=1.00:0.10 / mixed_ref=1 / me_range=32 / chroma_me=1 / trellis=2 / 8x8dct=1 / cqm=0 / deadzone=21,11 / fast_pskip=0 / chroma_qp_offset=-3 / threads=10 / sliced_threads=0 / nr=0 / decimate=1 / interlaced=0 / bluray_compat=0 / constrained_intra=0 / bframes=8 / b_pyramid=2 / b_adapt=2 / b_bias=0 / direct=3 / weightb=1 / open_gop=1 / weightp=2 / keyint=250 / keyint_min=25 / scenecut=40 / intra_refresh=0 / rc_lookahead=60 / rc=2pass / mbtree=1 / bitrate=1869 / ratetol=1.0 / qcomp=0.60 / qpmin=0 / qpmax=69 / qpstep=4 / cplxblur=20.0 / qblur=0.5 / ip_ratio=1.40 / aq=1:1.50
Default : Yes
Forced : No
Audio
ID : 2
Format : AC-3
Format/Info : Audio Coding 3
Mode extension : CM (complete main)
Codec ID : A_AC3
Duration : 6mn 53s
Bit rate mode : Constant
Bit rate : 448 Kbps
Channel(s) : 6 channels
Channel positions : Front: L C R, Side: L R, LFE
Sampling rate : 48.0 KHz
Bit depth : 16 bits
Compression mode : Lossy
Stream size : 22.1 MiB (19%)
Title : AC3, 5.1 ch., 448 kbps
Language : Russian
Default : Yes
Forced : No

MediaInfo (24 - 25)

General
Unique ID : 204074260793074717240681884018609835718 (0x998745E19FE1DD299F8AB26C99214EC6)
Format : Matroska
Format version : Version 2
File size : 110 MiB
Duration : 7mn 12s
Overall bit rate : 2 130 Kbps
Movie name : -=POTROKS=-
Encoded date : UTC 2012-06-02 05:59:57
Writing application : mkvmerge v5.6.0 ('Kenya Kane') built on May 27 2012 16:44:04
Writing library : libebml v1.2.3 + libmatroska v1.3.0
Video
ID : 1
Format : AVC
Format/Info : Advanced Video Codec
Format profile : High@L4.1
Format settings, CABAC : Yes
Format settings, ReFrames : 9 frames
Codec ID : V_MPEG4/ISO/AVC
Duration : 7mn 12s
Bit rate : 1 869 Kbps
Width : 1 024 pixels
Height : 576 pixels
Display aspect ratio : 16:9
Frame rate mode : Variable
Frame rate : 24.000 fps
Color space : YUV
Chroma subsampling : 4:2:0
Bit depth : 8 bits
Scan type : Progressive
Bits/(Pixel*Frame) : 0.132
Stream size : 94.4 MiB (86%)
Writing library : x264 core 116 r2019M 9cc407d
Encoding settings : cabac=1 / ref=10 / deblock=1:-2:-2 / analyse=0x3:0x133 / me=umh / subme=9 / psy=1 / psy_rd=1.00:0.00 / mixed_ref=1 / me_range=42 / chroma_me=1 / trellis=1 / 8x8dct=1 / cqm=0 / deadzone=21,13 / fast_pskip=0 / chroma_qp_offset=-2 / threads=8 / sliced_threads=0 / nr=0 / decimate=1 / interlaced=0 / bluray_compat=0 / constrained_intra=0 / bframes=8 / b_pyramid=1 / b_adapt=2 / b_bias=0 / direct=3 / weightb=1 / open_gop=0 / weightp=2 / keyint=240 / keyint_min=24 / scenecut=40 / intra_refresh=0 / rc_lookahead=100 / rc=2pass / mbtree=1 / bitrate=1869 / ratetol=1.0 / qcomp=0.60 / qpmin=10 / qpmax=53 / qpstep=4 / cplxblur=20.0 / qblur=0.7 / ip_ratio=1.40 / aq=1:1.20
Language : Russian
Default : Yes
Forced : No
Audio
ID : 2
Format : AC-3
Format/Info : Audio Coding 3
Mode extension : CM (complete main)
Codec ID : A_AC3
Duration : 7mn 12s
Bit rate mode : Constant
Bit rate : 256 Kbps
Channel(s) : 2 channels
Channel positions : Front: L R
Sampling rate : 48.0 KHz
Bit depth : 16 bits
Compression mode : Lossy
Stream size : 13.2 MiB (12%)
Title : AC3, 2/0 (L,R) 256.00 kbps
Language : Russian
Default : Yes
Forced : No

Скриншоты















Показать сообщения:    

Текущее время: 19-Окт 17:22

Часовой пояс: UTC - 1


Вы не можете начинать темы
Вы не можете отвечать на сообщения
Вы не можете редактировать свои сообщения
Вы не можете удалять свои сообщения
Вы не можете голосовать в опросах
Вы не можете прикреплять файлы к сообщениям
Вы не можете скачивать файлы

!ВНИМАНИЕ!
Сайт не предоставляет электронные версии произведений, а занимается лишь коллекционированием и каталогизацией ссылок, присылаемых и публикуемых на форуме нашими читателями. Если вы являетесь правообладателем какого-либо представленного материала и не желаете, чтобы ссылка на него находилась в нашем каталоге, свяжитесь с нами, и мы незамедлительно удалим ее. Файлы для обмена на трекере предоставлены пользователями сайта, и администрация не несет ответственности за их содержание. Просьба не заливать файлы, защищенные авторскими правами, а также файлы нелегального содержания!