Важное объявление!
У Нас Все раздачи мультитрекерные, при нуле пиров в релизах, можете смело вставать на закачку!
 
Автор Сообщение

HUNTER

Стаж:
4 года 7 месяцев
Сообщений:
61573

Репутация: 101

[+] [-]
Вне форума [Профиль] [ЛС]

Маша и Медведь: Картина маслом---
Год выхода: 2012
Страна: Россия
Выпущено: Россия, Студия Анимаккорд
Жанр: мультфильм, короткометражка, комедия, семейный
Продолжительность: 00:07:09
Перевод: Оригинал
Режиссер: Наталья Мальгина, Олег Кузовков, Олег Ужинов, Денис Червяцов, Владислав Байрамгулов
Роли озвучивали: Алина Кукушкина, Эдуард Назаров, Борис Кутневич
В ролях: Маша, Медведь--О фильме:
Мультсериал про девочку Машу, которая никому не дает покоя, и в первую очередь — своему другу Медведю.Сериал рассчитан в первую очередь на детскую аудиторию от 3 до 9 лет. Тем не менее мультфильм семейный, интересный для всех возрастов, взрослые тоже могут посмеяться над приключениями Маши и Медведя. Несмотря на то, что персонажи для зрителя являются знакомыми с детства по русской народной сказке, предполагается некоторая адаптация зрительского восприятия к новой трактовке старой истории — персонажи живут в наше время, их быт, хоть и абсурден, но современен, их отношения — это отношения не девочки и зверя, а ребенка и взрослого, маленького человечка и огромного мира.-- --Качество: HDRip - AVC
Формат: MKV
Видео кодек: AVC
Аудио кодек: AC3
Видео: MPEG-4 AVC, 1499 Кбит/с, 1024x576
Аудио: 48 kHz, AC3, 2 ch, 448 Кбит/с-- --

MI

Код: copyText_writeLink('this.parentNode.parentNode.nextSibling.nextSibling'); Общее
Уникальный идентификатор : 171676083806811998779147670669140473167 (0x81279C6E06B7AA14A9ABC55B6DE8B54F)
Полное имя : D:\Films\Загрузки\User\Masha.i.Medved.27.seria.Kartina.maslom.2012.x264.HDRip.(AVC).mkv
Формат : Matroska
Версия формата : Version 2
Размер файла : 99,7 Мбайт
Продолжительность : 7 м. 9 с.
Общий поток : 1944 Кбит/сек
Название фильма : Masha.i.Medved.27.seria.Kartina.maslom.2012.x264.HDRip.(AVC)
Дата кодирования : UTC 2012-09-14 21:51:12
Программа кодирования : mkvmerge v4.0.0 ('The Stars were mine') сборка от Jun 6 2010 16:18:42
Библиотека кодирования : libebml v1.0.0 + libmatroska v1.0.0
Видео
Идентификатор : 1
Формат : AVC
Формат/Информация : Advanced Video Codec
Профиль формата : [url=mailto:High@L4.1]High@L4.1[/url]
Параметр CABAC формата : Да
Параметр ReFrames формата : 8 кадров
Идентификатор кодека : V_MPEG4/ISO/AVC
Продолжительность : 7 м. 9 с.
Битрейт : 1499 Кбит/сек
Ширина : 1024 пикселя
Высота : 576 пикселей
Соотношение сторон : 16:9
Режим частоты кадров : Постоянный
Частота кадров : 29,970 кадров/сек
Цветовое пространство : YUV
Субдискретизация насыщенности : 4:2:0
Битовая глубина : 8 бит
Тип развёртки : Прогрессивная
Бит/(Пиксели*Кадры) : 0.085
Размер потока : 74,7 Мбайт (75%)
Заголовок : Rip by Enigma-Vladislav71
Библиотека кодирования : x264 core 92 r1510 33d382a
Настройки программы : cabac=1 / ref=8 / deblock=1:-2:-2 / analyse=0x3:0x133 / me=umh / subme=10 / psy=1 / psy_rd=1.00:0.00 / mixed_ref=1 / me_range=48 / chroma_me=1 / trellis=2 / 8x8dct=1 / cqm=0 / deadzone=21,11 / fast_pskip=0 / chroma_qp_offset=-2 / threads=3 / sliced_threads=0 / nr=0 / decimate=1 / interlaced=0 / constrained_intra=0 / bframes=8 / b_pyramid=2 / b_adapt=2 / b_bias=0 / direct=3 / wpredb=1 / wpredp=2 / keyint=240 / keyint_min=23 / scenecut=40 / intra_refresh=0 / rc=2pass / mbtree=0 / bitrate=1499 / ratetol=1.0 / qcomp=0.60 / qpmin=10 / qpmax=51 / qpstep=4 / cplxblur=20.0 / qblur=0.5 / ip_ratio=1.40 / pb_ratio=1.30 / aq=1:1.00
Default : Нет
Forced : Нет
Аудио
Идентификатор : 2
Формат : AC-3
Формат/Информация : Audio Coding 3
Расширение режима : CM (complete main)
Параметр Endianness формата : Big
Идентификатор кодека : A_AC3
Продолжительность : 7 м. 9 с.
Вид битрейта : Постоянный
Битрейт : 448 Кбит/сек
Каналы : 2 канала
Расположение каналов : Front: L R
Частота : 48,0 КГц
Битовая глубина : 16 бит
Метод сжатия : С потерями
Размер потока : 23,0 Мбайт (23%)
Язык : Russian
Default : Нет
Forced : Нет
--
Пожалуйста, оставайтесь на раздаче как можно дольше--

_________________
Показать сообщения:    

Текущее время: Сегодня 07:13

Часовой пояс: GMT



Вы не можете начинать темы
Вы не можете отвечать на сообщения
Вы не можете редактировать свои сообщения
Вы не можете удалять свои сообщения
Вы не можете голосовать в опросах
Вы не можете прикреплять файлы к сообщениям
Вы не можете скачивать файлы
Наши партнеры: интернет магазин Ивановского трикотажа textilla.ru