Ивановский Торрент трекер
Яндекс.Погода
 

[Цитировать]
HUNTER

Махни крылом
Yellowbird
«Bon voyage» Год выпуска: 2014
Страна: Франция
Жанр: мультфильм, семейный
Продолжительность: 01:29:52
Перевод: Профессиональный (Дублированный)
субтитры: отсутствуют-Режиссёр: Кристиан Де Вита : Christian De Vita-Роли озвучивали: Сет Грин, Иветт Николь Браун, Джим Рэш, Дакота Фаннинг, Кристин Барански, Натали Бутфо, Брэйди Корбет, Артур Дюпон, Сара Форестье, Дэнни Гловер
Роли дублировали: Алексей Воробьев, Пелагея Ханова, Вадим Галыгин, Марина Кравец, Алена Бородина-Описание: Каждый год, все птицы улетают на юг. Должна улететь и стая нашего юного героя Чижика, но в последний момент перед перелетом на вожака стаи Дариуса нападает злой кот. Только Дариус знает дорогу на юг, и он успевает передать секрет Чижику, который теперь должен стать вожаком стаи. У Чижика нет опыта таких дальних перелетов, и тем более, опыта лидерства в стае, но ему не остается ничего, кроме как быстро учиться.- раздача от: -- Работа с WEB-DL и звуком -Azureus--Качество: WEB-DL 1080p
Формат: MKV
Видео кодек: AVC
Аудио кодек: AC3
Видео: 1920x1080 , 24 fps, ~4871 kbps avg, 0.098 bit/pixel
Аудио: [RUS] 48 kHz, AC3 Dolby Digital, 3/2 (L,C,R,l,r) + LFE ch, ~448 kbps avg
навигация по главам: 17 глав (не именные)

MediaInfo

Общее
Уникальный идентификатор : 240006176752005711558475869774529621229 (0xB48F821D9E9A508984DE0303B586ECED)
Полное имя : D:\Im\Махни крылом\Yellowbird.2014.WEB-DL 1080p.mkv
Формат : Matroska
Версия формата : Version 4 / Version 2
Размер файла : 3,41 Гбайт
Продолжительность : 1 ч. 29 м.
Общий поток : 5426 Кбит/сек
Название фильма : Yellowbird.2014.WEB-DL 1080p -Azureus-
Дата кодирования : UTC 2015-03-15 11:54:19
Программа кодирования : mkvmerge v7.5.0 ('Glass Culture') 32bit built on Jan 4 2015 16:37:25
Библиотека кодирования : libebml v1.3.1 + libmatroska v1.4.2
DURATION : 01:29:52.032000000
NUMBER_OF_FRAMES : 168501
NUMBER_OF_BYTES : 301953792
_STATISTICS_WRITING_APP : mkvmerge v7.5.0 ('Glass Culture') 32bit built on Jan 4 2015 16:37:25
_STATISTICS_WRITING_DATE_UTC : 2015-03-15 11:54:19
_STATISTICS_TAGS : BPS DURATION NUMBER_OF_FRAMES NUMBER_OF_BYTES
Видео
Идентификатор : 1
Формат : AVC
Формат/Информация : Advanced Video Codec
Профиль формата : High@L4.0
Параметр CABAC формата : Да
Параметр ReFrames формата : 4 кадра
Идентификатор кодека : V_MPEG4/ISO/AVC
Продолжительность : 1 ч. 29 м.
Битрейт : 4870 Кбит/сек
Ширина : 1920 пикселей
Высота : 1080 пикселей
Соотношение сторон : 16:9
Частота кадров : 24,000 кадра/сек
Цветовое пространство : YUV
Субдискретизация насыщенности : 4:2:0
Битовая глубина : 8 бит
Тип развёртки : Прогрессивная
Бит/(Пиксели*Кадры) : 0.098
Размер потока : 3,06 Гбайт (90%)
Язык : English
Default : Да
Forced : Нет
Основные цвета : BT.709-5, BT.1361, IEC 61966-2-4, SMPTE RP177
Характеристики трансфера : BT.709-5, BT.1361
Коэффициенты матрицы : BT.709-5, BT.1361, IEC 61966-2-4 709, SMPTE RP177
Аудио
Идентификатор : 2
Формат : AC-3
Формат/Информация : Audio Coding 3
Расширение режима : CM (complete main)
Идентификатор кодека : A_AC3
Продолжительность : 1 ч. 29 м.
Вид битрейта : Постоянный
Битрейт : 448 Кбит/сек
Каналы : 6 каналов
Расположение каналов : Front: L C R, Side: L R, LFE
Частота : 48,0 КГц
Битовая глубина : 16 бит
Метод сжатия : С потерями
Размер потока : 288 Мбайт (8%)
Заголовок : DUB
Язык : Russian
Default : Да
Forced : Нет
Меню
00:00:00.000 : en:1
00:03:27.000 : en:2
00:06:23.000 : en:3
00:10:43.000 : en:4
00:14:30.000 : en:5
00:20:06.000 : en:6
00:26:33.000 : en:7
00:31:02.000 : en:8
00:36:49.000 : en:9
00:42:58.000 : en:10
00:49:07.000 : en:11
00:53:47.000 : en:12
00:58:35.000 : en:13
01:03:11.000 : en:14
01:09:45.000 : en:15
01:14:11.000 : en:16
01:20:40.000 : en:17
____________________________________________
Стою на раздаче до 5 дней.
Просьба скачавшим как можно дольше не покидать раздачу!
ВСЕМ ПРИЯТНОГО ПРОСМОТРА!_________________________________________


Показать сообщения:    

Текущее время: 16-Дек 07:29

Часовой пояс: UTC ± 0


Вы не можете начинать темы
Вы не можете отвечать на сообщения
Вы не можете редактировать свои сообщения
Вы не можете удалять свои сообщения
Вы не можете голосовать в опросах
Вы не можете прикреплять файлы к сообщениям
Вы не можете скачивать файлы

!ВНИМАНИЕ!
Сайт не предоставляет электронные версии произведений, а занимается лишь коллекционированием и каталогизацией ссылок, присылаемых и публикуемых на форуме нашими читателями. Если вы являетесь правообладателем какого-либо представленного материала и не желаете, чтобы ссылка на него находилась в нашем каталоге, свяжитесь с нами, и мы незамедлительно удалим ее. Файлы для обмена на трекере предоставлены пользователями сайта, и администрация не несет ответственности за их содержание. Просьба не заливать файлы, защищенные авторскими правами, а также файлы нелегального содержания!