Ивановский Торрент трекер
Яндекс.Погода
 

[Цитировать]
HUNTER

Махни крылом / Yellowbird
Gus - Petit oiseau, grand voyage
Страна: Франция, Бельгия
Жанр: мультфильм, комедия, приключения, семейный
Продолжительность: 01:26:16
Год выпуска: 2014-Перевод: Профессиональный (дублированный)
Русские субтитры: нет
Режиссёр: Кристиан Де Вита / Christian De Vita-Роли озвучивали: Сет Грин, Иветт Николь Браун, Джим Рэш, Дакота Фаннинг, Кристин Барански, Натали Бутфо, Брэйди Корбет, Артур Дюпон, Сара Форестье, Дэнни Гловер
Роли дублировали: Алексей Воробьев, Пелагея Ханова, Вадим Галыгин, Марина Кравец, Алена Бородина-Описание: Каждый год, все птицы улетают на юг. Должна улететь и стая нашего юного героя Чижика, но в последний момент перед перелетом на вожака стаи Дариуса нападает злой кот. Только Дариус знает дорогу на юг, и он успевает передать секрет Чижику, который теперь должен стать вожаком стаи. У Чижика нет опыта таких дальних перелетов, и тем более, опыта лидерства в стае, но ему не остается ничего, кроме как быстро учиться.-Релиз: | | -Качество: DVDRip
Формат: AVI
Видео: 688x384 (1.79:1), 25,000 fps, XviD 65 ~1 075 kbps avg, 0.16 bit/pixel
Аудио: 48.0 kHz, MPEG Layer 3, 2/0 (L,R) ch, ~128 kbps
Субтитры: отсутствуют

MI


Общее
Полное имя : E:\incarcare\rip gata\Mahni.krylom.2014.DVDRip.avi
Формат : AVI
Формат/Информация : Audio Video Interleave
Размер файла : 748 Мбайт
Продолжительность : 1 ч. 26 м.
Общий поток : 1212 Кбит/сек
Программа кодирования : VirtualDubMod 1.5.10.2 (build 2540/release)
Библиотека кодирования : VirtualDubMod build 2540/release
Видео
Идентификатор : 0
Формат : MPEG-4 Visual
Профиль формата : Advanced Simple@L5
Параметр BVOP формата : 1
Параметр QPel формата : Нет
Параметр GMC формата : Без точки перехода
Параметр матрицы формата : Выборочная
Идентификатор кодека : XVID
Идентификатор кодека/Подсказка : XviD
Продолжительность : 1 ч. 26 м.
Битрейт : 1075 Кбит/сек
Ширина : 688 пикселей
Высота : 384 пикселя
Соотношение сторон : 16:9
Частота кадров : 25,000 кадров/сек
Цветовое пространство : YUV
Субдискретизация насыщенности : 4:2:0
Битовая глубина : 8 бит
Тип развёртки : Прогрессивная
Метод сжатия : С потерями
Бит/(Пиксели*Кадры) : 0.163
Размер потока : 663 Мбайт (89%)
Библиотека кодирования : XviD 65
Аудио
Идентификатор : 1
Формат : MPEG Audio
Версия формата : Version 1
Профиль формата : Layer 3
Идентификатор кодека : 55
Идентификатор кодека/Подсказка : MP3
Продолжительность : 1 ч. 26 м.
Вид битрейта : Постоянный
Битрейт : 128 Кбит/сек
Каналы : 2 канала
Частота : 48,0 КГц
Метод сжатия : С потерями
Размер потока : 79,0 Мбайт (11%)
Выравнивание : Соединение по промежуткам
Продолжительность промежутка : 40 мс. (1,00 видеокадр)
Время предзагрузки промежутка : 504 мс.

Скриншоты



Показать сообщения:    

Текущее время: 16-Дек 18:56

Часовой пояс: UTC ± 0


Вы не можете начинать темы
Вы не можете отвечать на сообщения
Вы не можете редактировать свои сообщения
Вы не можете удалять свои сообщения
Вы не можете голосовать в опросах
Вы не можете прикреплять файлы к сообщениям
Вы не можете скачивать файлы

!ВНИМАНИЕ!
Сайт не предоставляет электронные версии произведений, а занимается лишь коллекционированием и каталогизацией ссылок, присылаемых и публикуемых на форуме нашими читателями. Если вы являетесь правообладателем какого-либо представленного материала и не желаете, чтобы ссылка на него находилась в нашем каталоге, свяжитесь с нами, и мы незамедлительно удалим ее. Файлы для обмена на трекере предоставлены пользователями сайта, и администрация не несет ответственности за их содержание. Просьба не заливать файлы, защищенные авторскими правами, а также файлы нелегального содержания!