Ивановский Торрент трекер
Яндекс.Погода
 

[Цитировать]
HUNTER

Махни крылом
Gus - Petit oiseau, grand voyage | Yellowbird
«Bon voyage»
- Страна: Франция, Бельгия
Жанр: мультфильм, семейный
Продолжительность: 01:30:10
Год выпуска: 2014
Перевод: Профессиональный (дублированный) R5
Русские субтитры: нет
Режиссёр: Кристиан Де Вита / Christian De Vita
Роли озвучивали: Сет Грин, Иветт Николь Браун, Джим Рэш, Дакота Фаннинг, Кристин Барански, Натали Бутфо, Брэйди Корбет, Артур Дюпон, Сара Форестье, Дэнни Гловер
Роли дублировали: Алексей Воробьев, Пелагея Ханова, Вадим Галыгин, Марина Кравец, Алена Бородина-ОписаниеКаждый год, все птицы улетают на юг. Должна улететь и стая нашего юного героя Чижика, но в последний момент перед перелетом на вожака стаи Дариуса нападает злой кот. Только Дариус знает дорогу на юг, и он успевает передать секрет Чижику, который теперь должен стать вожаком стаи. У Чижика нет опыта таких дальних перелетов, и тем более, опыта лидерства в стае, но ему не остается ничего, кроме как быстро учиться.-
«Махни крылом» (фр. Gus — Petit oiseau, grand voyage, англ. Yellowbird) — французский полнометражный мультфильм 2014 года. Производство компании TeamTO
Сэмпл

IMDb: 5.20 (318)
Релиз:

Качество: BDRip 1080p Blu-Ray Disc, (Custom) 1080p] BD3D
Формат: MKV
Видео: AVC 8097 Kbps 1920 x 1038 (1.850) 23.976 fps
Аудио: AC-3 448 Kbps 6 channels, 48.0 KHz Rus R5
Аудио 2: DTS 1509 Kbps 6 channels, 48.0 KHz Fre
Субтитры: Fre, Eng SRT

MI | Log

Log
x264 [info]: frame I:1330 Avg QP:10.18 size:273591
x264 [info]: frame P:33570 Avg QP:11.96 size: 83611
x264 [info]: frame B:94828 Avg QP:14.35 size: 25749
x264 [info]: consecutive B-frames: 5.1% 4.5% 16.7% 18.0% 9.7% 42.4% 1.7% 0.8% 1.1%
x264 [info]: mb I I16..4: 17.9% 39.2% 43.0%
x264 [info]: mb P I16..4: 3.7% 13.7% 5.8% P16..4: 22.2% 18.3% 9.6% 2.7% 0.4% skip:23.6%
x264 [info]: mb B I16..4: 1.2% 2.9% 0.8% B16..8: 24.4% 14.9% 3.0% direct: 4.1% skip:48.5% L0:40.3% L1:46.7% BI:13.0%
x264 [info]: 8x8 transform intra:57.1% inter:40.0%
x264 [info]: direct mvs spatial:100.0% temporal:0.0%
x264 [info]: coded y,uvDC,uvAC intra: 68.0% 85.3% 79.4% inter: 13.9% 17.9% 11.5%
x264 [info]: i16 v,h,dc,p: 63% 16% 6% 15%
x264 [info]: i8 v,h,dc,ddl,ddr,vr,hd,vl,hu: 12% 18% 19% 7% 7% 7% 9% 9% 11%
x264 [info]: i4 v,h,dc,ddl,ddr,vr,hd,vl,hu: 18% 19% 21% 5% 9% 8% 8% 6% 7%
x264 [info]: i8c dc,h,v,p: 46% 27% 17% 11%
x264 [info]: Weighted P-Frames: Y:1.5% UV:1.0%
x264 [info]: ref P L0: 64.3% 6.9% 18.8% 8.2% 1.8% 0.0%
x264 [info]: ref B L0: 88.3% 9.4% 2.4%
x264 [info]: ref B L1: 93.3% 6.7%
x264 [info]: kb/s:8298.17
x264 [total]: encoded 129728 frames, 5.69 fps, 8298.17 kb/s, duration 6:19:45.73
Format : Matroska
Format version : Version 4 / Version 2
File size : 6.46 GiB
Duration : 1h 30mn
Overall bit rate : 10.3 Mbps
Encoded date : UTC 2015-07-30 11:48:38
Writing application : mkvmerge v6.7.0 ('Back to the Ground') 32bit built on Jan 8 2014 15:03:17
Writing library : libebml v1.3.0 + libmatroska v1.4.1
Video
ID : 1
Format : AVC
Format/Info : Advanced Video Codec
Format profile : High@L4.1
Format settings, CABAC : Yes
Format settings, ReFrames : 4 frames
Codec ID : V_MPEG4/ISO/AVC
Duration : 1h 30mn
Bit rate : 8 097 Kbps
Width : 1 920 pixels
Height : 1 038 pixels
Display aspect ratio : 1.85:1
Frame rate mode : Constant
Frame rate : 23.976 fps
Color space : YUV
Chroma subsampling : 4:2:0
Bit depth : 8 bits
Scan type : Progressive
Bits/(Pixel*Frame) : 0.169
Stream size : 5.10 GiB (79%)
Title : Gus - Petit oiseau, grand voyage (2014) [rutracker.org]
Writing library : x264 core 146 r2538kMod 121396c
Encoding settings : cabac=1 / ref=4 / deblock=1:-3:-2 / analyse=0x3:0x133 / me=umh / subme=11 / psy=1 / fade_compensate=0.00 / psy_rd=1.00:0.05 / mixed_ref=1 / me_range=32 / chroma_me=1 / trellis=2 / 8x8dct=1 / cqm=0 / deadzone=21,11 / fast_pskip=0 / chroma_qp_offset=-3 / threads=12 / lookahead_threads=2 / sliced_threads=0 / nr=0 / decimate=1 / interlaced=0 / bluray_compat=0 / constrained_intra=0 / fgo=0 / bframes=8 / b_pyramid=2 / b_adapt=2 / b_bias=0 / direct=3 / weightb=1 / open_gop=0 / weightp=2 / keyint=250 / keyint_min=23 / scenecut=40 / intra_refresh=0 / rc_lookahead=80 / rc=crf / mbtree=0 / crf=16.6000 / qcomp=0.60 / qpmin=0 / qpmax=69 / qpstep=4 / vbv_maxrate=50000 / vbv_bufsize=62500 / crf_max=0.0 / nal_hrd=none / filler=0 / ip_ratio=1.40 / pb_ratio=1.30 / aq=3:0.90
Language : French
Default : Yes
Forced : No
Audio #1
ID : 2
Format : AC-3
Format/Info : Audio Coding 3
Mode extension : CM (complete main)
Format settings, Endianness : Big
Codec ID : A_AC3
Duration : 1h 30mn
Bit rate mode : Constant
Bit rate : 448 Kbps
Channel(s) : 6 channels
Channel positions : Front: L C R, Side: L R, LFE
Sampling rate : 48.0 KHz
Compression mode : Lossy
Stream size : 289 MiB (4%)
Title : DUB R5
Language : Russian
Default : Yes
Forced : No
Audio #2
ID : 3
Format : DTS
Format/Info : Digital Theater Systems
Mode : 16
Format settings, Endianness : Big
Codec ID : A_DTS
Duration : 1h 30mn
Bit rate mode : Constant
Bit rate : 1 509 Kbps
Channel(s) : 6 channels
Channel positions : Front: L C R, Side: L R, LFE
Sampling rate : 48.0 KHz
Bit depth : 16 bits
Compression mode : Lossy
Stream size : 973 MiB (15%)
Title : Original
Language : French
Default : No
Forced : No
Text #1
ID : 4
Format : UTF-8
Codec ID : S_TEXT/UTF8
Codec ID/Info : UTF-8 Plain Text
Language : French
Default : No
Forced : No
Text #2
ID : 5
Format : UTF-8
Codec ID : S_TEXT/UTF8
Codec ID/Info : UTF-8 Plain Text
Language : English
Default : No
Forced : No
Menu
00:00:00.000 : en:00:00:00.000
00:06:45.655 : en:00:06:45.655
00:13:25.221 : en:00:13:25.221
00:20:21.262 : en:00:20:21.262
00:26:29.379 : en:00:26:29.379
00:33:07.819 : en:00:33:07.819
00:40:10.408 : en:00:40:10.408
00:49:23.460 : en:00:49:23.460
00:58:53.572 : en:00:58:53.572
01:06:34.532 : en:01:06:34.532
01:12:39.730 : en:01:12:39.730
01:20:58.228 : en:01:20:58.228

Скриншоты | Rip vs Source






Source
Показать сообщения:    

Текущее время: 19-Окт 09:47

Часовой пояс: UTC - 1


Вы не можете начинать темы
Вы не можете отвечать на сообщения
Вы не можете редактировать свои сообщения
Вы не можете удалять свои сообщения
Вы не можете голосовать в опросах
Вы не можете прикреплять файлы к сообщениям
Вы не можете скачивать файлы

!ВНИМАНИЕ!
Сайт не предоставляет электронные версии произведений, а занимается лишь коллекционированием и каталогизацией ссылок, присылаемых и публикуемых на форуме нашими читателями. Если вы являетесь правообладателем какого-либо представленного материала и не желаете, чтобы ссылка на него находилась в нашем каталоге, свяжитесь с нами, и мы незамедлительно удалим ее. Файлы для обмена на трекере предоставлены пользователями сайта, и администрация не несет ответственности за их содержание. Просьба не заливать файлы, защищенные авторскими правами, а также файлы нелегального содержания!