Важное объявление!
У Нас Все раздачи мультитрекерные, при нуле пиров в релизах, можете смело вставать на закачку!
 
Автор Сообщение

HUNTER

Стаж:
4 года 10 месяцев
Сообщений:
65473

Репутация: 101

[+] [-]
Вне форума [Профиль] [ЛС]

Махни крылом
Gus - Petit oiseau, grand voyage | Yellowbird
«Bon voyage»
-
Страна: Франция, Бельгия
Жанр: мультфильм, семейный
Продолжительность: 01:30:10
Год выпуска: 2014
Перевод: Профессиональный (дублированный) R5
Русские субтитры: нет
Режиссёр: Кристиан Де Вита / Christian De Vita
Роли озвучивали: Сет Грин, Иветт Николь Браун, Джим Рэш, Дакота Фаннинг, Кристин Барански, Натали Бутфо, Брэйди Корбет, Артур Дюпон, Сара Форестье, Дэнни Гловер
Роли дублировали: Алексей Воробьев, Пелагея Ханова, Вадим Галыгин, Марина Кравец, Алена Бородина-ОписаниеКаждый год, все птицы улетают на юг. Должна улететь и стая нашего юного героя Чижика, но в последний момент перед перелетом на вожака стаи Дариуса нападает злой кот. Только Дариус знает дорогу на юг, и он успевает передать секрет Чижику, который теперь должен стать вожаком стаи. У Чижика нет опыта таких дальних перелетов, и тем более, опыта лидерства в стае, но ему не остается ничего, кроме как быстро учиться.-
«Махни крылом» (фр. Gus — Petit oiseau, grand voyage, англ. Yellowbird) — французский полнометражный мультфильм 2014 года. Производство компании TeamTO
Сэмпл

IMDb: 5.20 (318)
Релиз:

Качество: BDRip 720p Blu-Ray Disc, (Custom) 1080p] BD3D
Формат: MKV
Видео: AVC 3504 Kbps 1280 x 692 (1.850) at 23.976 fps
Аудио: AC-3 448 Kbps 6 channels, 48.0 KHz Rus R5
Аудио 2: AC-3 640 Kbps 6 channels, 48.0 KHz Fre
Субтитры: Fre, Eng SRT

MI | Log

Log
x264 [info]: frame I:1312 Avg QP:11.27 size:142679
x264 [info]: frame P:33200 Avg QP:13.37 size: 35360
x264 [info]: frame B:95216 Avg QP:16.10 size: 11243
x264 [info]: consecutive B-frames: 4.3% 4.9% 14.3% 25.8% 13.3% 31.3% 3.4% 0.9% 0.8% 0.4% 0.6%
x264 [info]: mb I I16..4: 12.9% 50.7% 36.4%
x264 [info]: mb P I16..4: 2.0% 10.4% 3.5% P16..4: 22.4% 20.3% 11.1% 2.8% 0.5% skip:27.0%
x264 [info]: mb B I16..4: 0.5% 2.0% 0.5% B16..8: 22.4% 14.8% 3.3% direct: 3.6% skip:52.9% L0:40.3% L1:45.4% BI:14.3%
x264 [info]: 8x8 transform intra:63.3% inter:45.0%
x264 [info]: direct mvs spatial:99.9% temporal:0.1%
x264 [info]: coded y,uvDC,uvAC intra: 72.0% 86.8% 78.1% inter: 13.4% 15.0% 8.8%
x264 [info]: i16 v,h,dc,p: 62% 18% 4% 16%
x264 [info]: i8 v,h,dc,ddl,ddr,vr,hd,vl,hu: 11% 15% 14% 8% 9% 9% 11% 11% 14%
x264 [info]: i4 v,h,dc,ddl,ddr,vr,hd,vl,hu: 17% 14% 14% 6% 12% 10% 10% 7% 9%
x264 [info]: i8c dc,h,v,p: 43% 29% 15% 13%
x264 [info]: Weighted P-Frames: Y:1.9% UV:1.1%
x264 [info]: ref P L0: 57.6% 7.8% 15.2% 6.1% 4.0% 3.3% 2.4% 1.7% 1.5% 0.4% 0.0%
x264 [info]: ref B L0: 76.7% 10.7% 5.5% 2.7% 1.9% 1.4% 0.8% 0.3%
x264 [info]: ref B L1: 92.6% 7.4%
x264 [info]: kb/s:3595.38
x264 [total]: encoded 129728 frames, 9.57 fps, 3595.38 kb/s, duration 3:45:49.83
Format : Matroska
Format version : Version 4 / Version 2
File size : 2.95 GiB
Duration : 1h 30mn
Overall bit rate : 4 686 Kbps
Encoded date : UTC 2015-07-23 09:15:15
Writing application : mkvmerge v6.7.0 ('Back to the Ground') 32bit built on Jan 8 2014 15:03:17
Writing library : libebml v1.3.0 + libmatroska v1.4.1
Video
ID : 1
Format : AVC
Format/Info : Advanced Video Codec
Format profile : High@L4.1
Format settings, CABAC : Yes
Format settings, ReFrames : 9 frames
Codec ID : V_MPEG4/ISO/AVC
Duration : 1h 30mn
Bit rate : 3 504 Kbps
Width : 1 280 pixels
Height : 692 pixels
Display aspect ratio : 1.85:1
Frame rate mode : Constant
Frame rate : 23.976 fps
Color space : YUV
Chroma subsampling : 4:2:0
Bit depth : 8 bits
Scan type : Progressive
Bits/(Pixel*Frame) : 0.165
Stream size : 2.21 GiB (75%)
Title : Gus - Petit oiseau, grand voyage 2014 [rutracker.org] 720p
Writing library : x264 core 146 r2538kMod 121396c
Encoding settings : cabac=1 / ref=9 / deblock=1:-3:-2 / analyse=0x3:0x133 / me=umh / subme=11 / psy=1 / fade_compensate=0.00 / psy_rd=1.00:0.05 / mixed_ref=1 / me_range=32 / chroma_me=1 / trellis=2 / 8x8dct=1 / cqm=0 / deadzone=21,11 / fast_pskip=0 / chroma_qp_offset=-3 / threads=12 / lookahead_threads=3 / sliced_threads=0 / nr=0 / decimate=1 / interlaced=0 / bluray_compat=0 / constrained_intra=0 / fgo=0 / bframes=10 / b_pyramid=2 / b_adapt=2 / b_bias=0 / direct=3 / weightb=1 / open_gop=0 / weightp=2 / keyint=250 / keyint_min=23 / scenecut=40 / intra_refresh=0 / rc_lookahead=80 / rc=crf / mbtree=0 / crf=16.6000 / qcomp=0.60 / qpmin=0 / qpmax=69 / qpstep=4 / vbv_maxrate=50000 / vbv_bufsize=62500 / crf_max=0.0 / nal_hrd=none / filler=0 / ip_ratio=1.40 / pb_ratio=1.30 / aq=3:0.90
Language : French
Default : Yes
Forced : No
Audio #1
ID : 2
Format : AC-3
Format/Info : Audio Coding 3
Mode extension : CM (complete main)
Format settings, Endianness : Big
Codec ID : A_AC3
Duration : 1h 30mn
Bit rate mode : Constant
Bit rate : 448 Kbps
Channel(s) : 6 channels
Channel positions : Front: L C R, Side: L R, LFE
Sampling rate : 48.0 KHz
Compression mode : Lossy
Stream size : 289 MiB (10%)
Title : Dub
Language : Russian
Default : Yes
Forced : No
Audio #2
ID : 3
Format : AC-3
Format/Info : Audio Coding 3
Mode extension : CM (complete main)
Format settings, Endianness : Big
Codec ID : A_AC3
Duration : 1h 30mn
Bit rate mode : Constant
Bit rate : 640 Kbps
Channel(s) : 6 channels
Channel positions : Front: L C R, Side: L R, LFE
Sampling rate : 48.0 KHz
Compression mode : Lossy
Stream size : 413 MiB (14%)
Title : Original
Language : French
Default : No
Forced : No
Text #1
ID : 4
Format : UTF-8
Codec ID : S_TEXT/UTF8
Codec ID/Info : UTF-8 Plain Text
Language : French
Default : No
Forced : No
Text #2
ID : 5
Format : UTF-8
Codec ID : S_TEXT/UTF8
Codec ID/Info : UTF-8 Plain Text
Language : English
Default : No
Forced : No
Menu
00:00:00.000 : en:00:00:00.000
00:06:45.655 : en:00:06:45.655
00:13:25.221 : en:00:13:25.221
00:20:21.262 : en:00:20:21.262
00:26:29.379 : en:00:26:29.379
00:33:07.819 : en:00:33:07.819
00:40:10.408 : en:00:40:10.408
00:49:23.460 : en:00:49:23.460
00:58:53.572 : en:00:58:53.572
01:06:34.532 : en:01:06:34.532
01:12:39.730 : en:01:12:39.730
01:20:58.228 : en:01:20:58.228

Скриншоты | Rip vs Source






Source

_________________
Показать сообщения:    

Текущее время: Сегодня 00:50

Часовой пояс: GMT



Вы не можете начинать темы
Вы не можете отвечать на сообщения
Вы не можете редактировать свои сообщения
Вы не можете удалять свои сообщения
Вы не можете голосовать в опросах
Вы не можете прикреплять файлы к сообщениям
Вы не можете скачивать файлы