Важное объявление!
У Нас Все раздачи мультитрекерные, при нуле пиров в релизах, можете смело вставать на закачку!
 
Автор Сообщение

HUNTER

Стаж:
4 года 8 месяцев
Сообщений:
62044

Репутация: 101

[+] [-]
Вне форума [Профиль] [ЛС]

Махинаторы повторный визит / Wheeler Dealers revisited
Год выпуска: 2012
Страна: Великобритания
Жанр: Документальные/познавательные фильмы
Продолжительность: ~45мин (каждая серия)
Перевод: Профессиональный (одноголосный)
Русские субтитры: нет
Режиссер: Discovery channel
Описание: Ведущий покупает старенькую машинку-автоклассику за небольшие денежки и передает ее механику-профессиналу Эду,
чтобы тот, в свою очередь, восстановил ее до приличного состояния, уложившись при этом в определенный бюджет.
А за тем ведущий продаёт этот автомобиль подороже.
Дополнительная информация:
В данной раздаче находятся:
1 серия - Jeep CJ7
2 серия - Alfa Romeo Spider
3 серия - Porsche 911 Targa
4 серия - BMW 635 CSi
5 серия - Mazda MX-5
Технические данные:
Формат : MPEG-4
Профиль формата : Base Media
Идентификатор кодека : isom
Размер файла : 224 Мбайт
Продолжительность : 42 м.
Режим общего битрейта : Переменный
Общий поток : 731 Кбит/сек
Программа кодирования : Lavf52.40.0
Видео
Идентификатор : 1
Формат : AVC
Формат/Информация : Advanced Video Codec
Профиль формата : High@L3.0
Параметр CABAC формата : Да
Параметр ReFrames формата : 3 кадра
Идентификатор кодека : avc1
Идентификатор кодека/Информация : Advanced Video Coding
Продолжительность : 42 м.
Duration_FirstFrame : 40 мс.
Битрейт : 598 Кбит/сек
Номинальный битрейт : 560 Кбит/сек
Ширина : 600 пикселей
Высота : 480 пикселей
Соотношение сторон : 5:4
Режим частоты кадров : Постоянный
Частота кадров : 25,000 кадров/сек
Цветовое пространство : YUV
Субдискретизация насыщенности : 4:2:0
Битовая глубина : 8 бит
Тип развёртки : Прогрессивная
Бит/(Пиксели*Кадры) : 0.083
Размер потока : 183 Мбайт (82%)
Библиотека кодирования : x264 core 79
Настройки программы : cabac=1 / ref=3 / deblock=1:0:0 / analyse=0x3:0x113 / me=hex / subme=7 / psy=1 / psy_rd=1.0:0.0 / mixed_ref=1 / me_range=16 / chroma_me=1 / trellis=1 / 8x8dct=1 / cqm=0 / deadzone=21,11 / chroma_qp_offset=-2 / threads=24 / nr=0 / decimate=1 / mbaff=0 / constrained_intra=0 / bframes=3 / b_pyramid=0 / b_adapt=1 / b_bias=0 / direct=1 / wpredb=32 / wpredp=2 / keyint=250 / keyint_min=25 / scenecut=40 / rc_lookahead=40 / rc=abr / mbtree=1 / bitrate=560 / ratetol=7.1 / qcomp=0.60 / qpmin=10 / qpmax=51 / qpstep=4 / ip_ratio=1.41 / aq=1:1.00
Аудио
Идентификатор : 2
Формат : AAC
Формат/Информация : Advanced Audio Codec
Профиль формата : LC
Идентификатор кодека : 40
Продолжительность : 42 м.
Вид битрейта : Переменный
Битрейт : 128 Кбит/сек
Каналы : 2 канала
Расположение каналов : Front: L R
Частота : 44,1 КГц
Метод сжатия : С потерями
Задержка видео : 80 мс.
Размер потока : 39,2 Мбайт (18%)
Скриншоты:

_________________
Показать сообщения:    

Текущее время: Сегодня 23:33

Часовой пояс: GMT



Вы не можете начинать темы
Вы не можете отвечать на сообщения
Вы не можете редактировать свои сообщения
Вы не можете удалять свои сообщения
Вы не можете голосовать в опросах
Вы не можете прикреплять файлы к сообщениям
Вы не можете скачивать файлы
Наши партнеры: интернет магазин Ивановского трикотажа textilla.ru