Важное объявление!
У Нас Все раздачи мультитрекерные, при нуле пиров в релизах, можете смело вставать на закачку!
 
Автор Сообщение

HUNTER

Стаж:
4 года 8 месяцев
Сообщений:
61987

Репутация: 101

[+] [-]
Вне форума [Профиль] [ЛС]

-Матрица: Трилогия / The Matrix: Trilogy Страна: США
Жанр: Фантастика Боевик
Год выпуска: 1999 - 2003
Продолжительность: 02:17:05, 02:18:17, 02:09:15-Cубтитры: английские, русские, украинские
Оригинальная аудиодорожка: английский -Режиссер: Ларри и Эндрю Вачовски / Larry and Andrew Wachowski-

Матрица / The Matrix (1999)Матрица / The Matrix
Страна: США
Жанр: Фантастика Боевик
Год выпуска: 1999
Продолжительность: 02:17:05-Cубтитры: английские, русские, украинские
Оригинальная аудиодорожка: английский -В ролях-Киану Ривз, Лоуренс Фишбёрн, Керри-Энн Мосс, Хьюго Уивинг, Глория Фостер, Джо Пантолиано, Маркус Чонг, Пол Годдард, Роберт Тэйлор, Джулиэн Араханга, Мэтт Доран, Белинда МакКлори, Энтони Рэй Паркер, Стив Додд-ОПИСАНИЕ-Молодой человек по имени Томас Андерсон ведёт двойную жизнь. Днём он программист в крупной компании, ночью — хакер Нео. Однажды на его персональный компьютер приходит странное сообщение: «Ты увяз в Матрице» (The Matrix has you…). Неизвестный даёт ему указание «следовать за белым кроликом». Нео встречает девушку с татуировкой в виде белого кролика. Следуя за ней, он приходит в ночной клуб. Там он знакомится с девушкой-хакером по имени Тринити, которая обещает раскрыть Томасу тайну Матрицы. Для этого Нео должен встретиться с тем, кто его давно ищет, — Морфеусом, которого власти считают опаснейшим террористом.
У Нео не остается времени для колебаний, потому что его компьютерными преступлениями уже заинтересовались так называемые «агенты», своеобразные «охранники» Матрицы. Морфеус предлагает молодому человеку увидеть Матрицу собственными глазами и предлагает на выбор две капсулы — синюю, приняв которую Нео проснётся в своей постели и будет считать, что ему всё приснилось, и красную, которая позволит Нео понять, что такое Матрица. Нео выбирает красную капсулу.
Нео попадает в жуткий разрушенный мир, который оказывается настоящим реальным миром. Он узнаёт, что привычный ему мир является иллюзией, порождённой искусственным интеллектом суперкомпьютера. Планета погружена в вечный сумрак, города лежат в руинах. Люди порабощены всесильными машинами, чтобы производить энергию, необходимую машинам для выживания. Те немногие, что смогли сохранить сознание, прячутся в катакомбах и ведут партизанскую войну против машин, научившись самостоятельно входить и выходить из Матрицы.
Последним городом человечества является расположенный глубоко под землёй Зион, из которого предпринимаются отчаянные вылазки на летающих кораблях в мир Матрицы для спасения подключённых к ней людей. Один из таких кораблей носит название «Навуходоносор», и его капитаном является Морфеус. Он верит, что Нео — Избранный, который уже рождался, когда только Матрица была создана, с редкой возможностью изменять все вокруг и подстраивать Матрицу под себя, именно он и спас первых людей из движения сопротивления машинам, раскрыл им правду и сможет навсегда спасти человечество от власти роботов. В разум Нео загружают все виды боевых искусств, чтобы он мог противостоять агентам. Морфеус проверяет Нео в бою, в котором он сначала легко одолевает его, но потом Нео смог одолеть Морфеуса. Далее он учит Нео совершать огромные прыжки, но Нео это не удаётся с первого раза, как и всем. Команда удивляется этому, так как если он Избранный, то законы матрицы должны быть ему по силам.
Однако в экипаже «Навуходоносора» появился предатель Сайфер, готовый променять жизнь своих друзей и свободу разума на сладкий обман Системы. Сайфер сдаёт своих бывших друзей агентам — охранным программам Матрицы, которые жаждут получить коды доступа к Зиону, когда вся команда направляется к Оракулу, чтобы Нео смог узнать, избранный он, или нет. Оракул предсказывает, что Нео должен будет сделать выбор между своей жизнью и жизнью Морфеуса. Морфеус попадает в плен к агентам, спасая Нео. Сайфер убивает половину команды, но Тэнку, оператору, удается его убить, с помощью винтовки Теслы. Нео и Тринити ценой сверхчеловеческих усилий спасают своего капитана и когда они почти вышли из Матрицы, агент Смит успевает прострелить телефонную трубку и Нео не успевает выйти. Нео решает вступить в схватку с агентом, так как Пифия сказала, что каждый решает для себя сам, кем ему быть. В тяжёлой схватке Нео с трудом удается обезвредить одного агента и бежать от остальных. Когда он уже заходит в комнату с телефоном, Смит убивает его. Однако Нео, ощутив в себе силу, оживает (так как на самом деле он и есть Избранный). Он с лёгкостью уничтожает Смита, разрушив его программный код.
В конце фильма Нео звонит по телефону, он обещает, что покажет людям, запертым в Матрице, что они на самом деле живут в мире, где нет правил и границ — в мире, где «возможно всё».
- -Качество видео: HDDVDRip
Исходное видео: HDDVD |HDClub|-Контейнер: MKV-Видео: AVC, 1120x466 (2,40:1), ~3500 kbps, 23,976 fps,
Аудио: АС-3, 448 kbps, Dolby Digital, 4 (Front: L C R, Side: C) ch, 48 KHz |Дубляж|
Аудио: АС-3, 448 kbps, Dolby Digital, 4 (Front: L C R, Side: C) ch, 48 KHz |Оригинал|
Формат субтитров: softsub (SRT)
Главы: есть--

MediaInfo
x264
VIDEO ENCODING
------------------------------
Encoding video to: F:\Temp\0242.264
x264 Q18.0 1920x1080 23.976fps (197224 frames)
avs4x264.exe: -L x264_64.exe --crf 18.0 --preset veryslow --profile high --level 4.1 --ref 14 --aq-mode 2 --aq-strength 0.90 --deblock -2:-1 --merange 32 --bframes 16 --direct spatial --qcomp 0.65 --vbv-maxrate 50000 --vbv-bufsize 62500 --subme 11 --no-mbtree --keyint 240 --slices 4 --sar 1:1 --output "F:\Temp\0242.264" "F:\Temp\0242.avs"
raw [info]: 1120x466p 1:1 @ 24000/1001 fps (cfr)
x264 [info]: using SAR=1/1
x264 [info]: using cpu capabilities: MMX2 SSE2Fast LZCNT
x264 [info]: profile High, level 4.1
x264 [info]: frame I:1547 Avg QP:16.30 size: 70982
x264 [info]: frame P:39248 Avg QP:17.94 size: 33100
x264 [info]: frame B:156429 Avg QP:20.38 size: 14998
x264 [info]: consecutive B-frames: 1.7% 1.9% 5.2% 16.4% 17.3% 38.4% 7.6% 5.1% 1.7% 1.9% 0.8% 0.5% 0.2% 0.3% 0.1% 0.1% 0.6%
x264 [info]: mb I I16..4: 4.1% 83.7% 12.2%
x264 [info]: mb P I16..4: 0.4% 16.5% 1.5% P16..4: 28.0% 35.8% 13.0% 1.5% 0.1% skip: 3.3%
x264 [info]: mb B I16..4: 0.0% 3.1% 0.3% B16..8: 37.3% 21.8% 4.2% direct: 6.2% skip:27.1% L0:44.5% L1:44.1% BI:11.4%
x264 [info]: 8x8 transform intra:89.4% inter:63.0%
x264 [info]: coded y,uvDC,uvAC intra: 93.6% 84.6% 64.8% inter: 33.7% 25.7% 5.7%
x264 [info]: i16 v,h,dc,p: 24% 19% 10% 47%
x264 [info]: i8 v,h,dc,ddl,ddr,vr,hd,vl,hu: 10% 8% 12% 10% 13% 12% 12% 11% 13%
x264 [info]: i4 v,h,dc,ddl,ddr,vr,hd,vl,hu: 34% 6% 5% 7% 11% 11% 10% 8% 9%
x264 [info]: i8c dc,h,v,p: 43% 27% 16% 15%
x264 [info]: Weighted P-Frames: Y:6.9% UV:4.0%
x264 [info]: ref P L0: 40.9% 8.1% 17.7% 7.5% 6.0% 4.5% 3.9% 2.2% 2.0% 1.7% 1.5% 1.3% 1.3% 1.2% 0.2% 0.0%
x264 [info]: ref B L0: 66.9% 13.0% 6.5% 3.4% 2.5% 2.1% 1.7% 1.0% 0.9% 0.8% 0.7% 0.4% 0.2%
x264 [info]: ref B L1: 90.5% 9.5%
x264 [info]: kb/s:3651.87
Формат : Matroska
Версия формата : Version 2
Размер файла : 4,30 Гбайт
Продолжительность : 2 ч. 17 м.
Общий поток : 4489 Кбит/сек
Название фильма : Матрица / The Matrix (1999) [Torrents.Ru]
Дата кодирования : UTC 2014-06-22 09:35:15
Программа кодирования : mkvmerge v5.5.0 ('Healer') built on Apr 24 2012 23:47:03
Библиотека кодирования : libebml v1.2.3 + libmatroska v1.3.0
Видео
Идентификатор : 1
Формат : AVC
Формат/Информация : Advanced Video Codec
Профиль формата : High@L4.1
Параметр CABAC формата : Да
Параметр ReFrames формата : 14 кадров
Идентификатор кодека : V_MPEG4/ISO/AVC
Продолжительность : 2 ч. 17 м.
Битрейт : 3503 Кбит/сек
Ширина : 1120 пикселей
Высота : 466 пикселей
Соотношение сторон : 2,40:1
Частота кадров : 23,976 кадра/сек
Цветовое пространство : YUV
Субдискретизация насыщенности : 4:2:0
Битовая глубина : 8 бит
Тип развёртки : Прогрессивная
Бит/(Пиксели*Кадры) : 0.280
Размер потока : 3,35 Гбайт (78%)
Заголовок : The Matrix.(1999)_HDDVDRip_cw_Torrents.Ru
Библиотека кодирования : x264 core 142 r2431 ac76440
Настройки программы : cabac=1 / ref=14 / deblock=1:-2:-1 / analyse=0x3:0x133 / me=umh / subme=11 / psy=1 / psy_rd=1.00:0.00 / mixed_ref=1 / me_range=32 / chroma_me=1 / trellis=2 / 8x8dct=1 / cqm=0 / deadzone=21,11 / fast_pskip=1 / chroma_qp_offset=-2 / threads=4 / lookahead_threads=1 / sliced_threads=0 / slices=4 / nr=0 / decimate=1 / interlaced=0 / bluray_compat=0 / constrained_intra=0 / bframes=16 / b_pyramid=2 / b_adapt=2 / b_bias=0 / direct=1 / weightb=1 / open_gop=0 / weightp=2 / keyint=240 / keyint_min=23 / scenecut=40 / intra_refresh=0 / rc_lookahead=60 / rc=crf / mbtree=0 / crf=18.0 / qcomp=0.65 / qpmin=0 / qpmax=69 / qpstep=4 / vbv_maxrate=50000 / vbv_bufsize=62500 / crf_max=0.0 / nal_hrd=none / filler=0 / ip_ratio=1.40 / pb_ratio=1.30 / aq=2:0.90
Язык : Russian
Default : Да
Forced : Нет
Аудио #1
Идентификатор : 2
Формат : AC-3
Формат/Информация : Audio Coding 3
Расширение режима : CM (complete main)
Параметр Endianness формата : Big
Идентификатор кодека : A_AC3
Продолжительность : 2 ч. 17 м.
Вид битрейта : Постоянный
Битрейт : 448 Кбит/сек
Каналы : 6 каналов
Расположение каналов : Front: L C R, Side: L R, LFE
Частота : 48,0 КГц
Битовая глубина : 16 бит
Метод сжатия : С потерями
Размер потока : 439 Мбайт (10%)
Заголовок : Дубляж
Язык : Russian
Default : Да
Forced : Нет
Аудио #2
Идентификатор : 3
Формат : AC-3
Формат/Информация : Audio Coding 3
Расширение режима : CM (complete main)
Параметр Endianness формата : Big
Идентификатор кодека : A_AC3
Продолжительность : 2 ч. 17 м.
Вид битрейта : Постоянный
Битрейт : 448 Кбит/сек
Каналы : 6 каналов
Расположение каналов : Front: L C R, Side: L R, LFE
Частота : 48,0 КГц
Битовая глубина : 16 бит
Метод сжатия : С потерями
Размер потока : 439 Мбайт (10%)
Заголовок : Оригинал
Язык : English
Default : Нет
Forced : Нет
Текст #1
Идентификатор : 4
Формат : UTF-8
Идентификатор кодека : S_TEXT/UTF8
Идентификатор кодека/Информация : UTF-8 Plain Text
Язык : Russian
Default : Да
Forced : Нет
Текст #2
Идентификатор : 5
Формат : UTF-8
Идентификатор кодека : S_TEXT/UTF8
Идентификатор кодека/Информация : UTF-8 Plain Text
Язык : Ukrainian
Default : Нет
Forced : Нет
Текст #3
Идентификатор : 6
Формат : UTF-8
Идентификатор кодека : S_TEXT/UTF8
Идентификатор кодека/Информация : UTF-8 Plain Text
Язык : English
Default : Нет
Forced : Нет
Меню
00:00:00.000 : :Chapter 01
00:05:00.000 : :Chapter 02
00:10:00.000 : :Chapter 03
00:15:00.000 : :Chapter 04
00:20:00.000 : :Chapter 05
00:25:00.000 : :Chapter 06
00:30:00.000 : :Chapter 07
00:35:00.000 : :Chapter 08
00:40:00.000 : :Chapter 09
00:45:00.000 : :Chapter 10
00:50:00.000 : :Chapter 11
00:55:00.000 : :Chapter 12
01:00:00.000 : :Chapter 13
01:05:00.000 : :Chapter 14
01:10:00.000 : :Chapter 15
01:15:00.000 : :Chapter 16
01:20:00.000 : :Chapter 17
01:25:00.000 : :Chapter 18
01:30:00.000 : :Chapter 19
01:35:00.000 : :Chapter 20
01:40:00.000 : :Chapter 21
01:45:00.000 : :Chapter 22
01:50:00.000 : :Chapter 23
01:55:00.000 : :Chapter 24
02:00:00.000 : :Chapter 25
02:05:00.000 : :Chapter 26
02:10:00.000 : :Chapter 27
02:15:00.000 : :Chapter 28
Скриншоты
Сравнение с исходником Матрица: Перезагрузка / The Matrix Reloaded (2003)Матрица: Перезагрузка / The Matrix Reloaded
Страна: США
Жанр: Фантастика Боевик
Год выпуска: 2003
Продолжительность: 02:18:17-Cубтитры: английские, русские, украинские
Оригинальная аудиодорожка: английский -В ролях-Киану Ривз, Кэрри-Энн Мосс, Лоренс Фишбёрн, Хьюго Уивинг, Моника Беллуччи, Ламбер Вильсон, Энтони Вон, Гарри Дж. Ленникс, Рэндолл Дак Ким, Глория Фостер-ОПИСАНИЕ-Борцы за свободу Нео, Тринити и Морфеус продолжают руководить восстанием людей против Армии Машин. Для уничтожения системы репрессий и эксплуатации они вынуждены прибегнуть не только к арсеналу превосходного оружия, но и к своим выдающимся навыкам.
Участие в миссии по спасению человеческой расы от ее полного истребления приносит им более глубокое понимание конструкции Матрицы и осознание центральной роли Нео в судьбе человечества.
- -Качество видео: HDDVDRip
Исходное видео: HDDVD |HDClub|-Контейнер: MKV-Видео: AVC, 1120x466 (2,40:1), ~3000 kbps, 23,976 fps,
Аудио: АС-3, 448 kbps, Dolby Digital, 4 (Front: L C R, Side: C) ch, 48 KHz |Дубляж|
Аудио: АС-3, 448 kbps, Dolby Digital, 4 (Front: L C R, Side: C) ch, 48 KHz |Оригинал|
Формат субтитров: softsub (SRT)
Главы: есть--

MediaInfo
x264
VIDEO ENCODING
------------------------------
Encoding video to: F:\Temp\0244.264
x264 Q17.9 1920x1080 23.976fps (198931 frames)
avs4x264.exe: -L x264_64.exe --crf 17.9 --preset veryslow --profile high --level 4.1 --ref 14 --aq-mode 2 --aq-strength 0.90 --deblock -2:-1 --merange 32 --bframes 16 --direct spatial --qcomp 0.65 --vbv-maxrate 50000 --vbv-bufsize 62500 --subme 11 --no-mbtree --keyint 240 --slices 4 --sar 1:1 --output "F:\Temp\0244.264" "F:\Temp\0244.avs"
raw [info]: 1120x466p 1:1 @ 24000/1001 fps (cfr)
x264 [info]: using SAR=1/1
x264 [info]: using cpu capabilities: MMX2 SSE2Fast LZCNT
x264 [info]: profile High, level 4.1
x264 [info]: frame I:1714 Avg QP:16.54 size: 68121
x264 [info]: frame P:41418 Avg QP:18.26 size: 29120
x264 [info]: frame B:155799 Avg QP:20.67 size: 11515
x264 [info]: consecutive B-frames: 2.2% 2.6% 7.0% 18.4% 16.7% 33.5% 6.9% 6.0% 1.9% 1.7% 0.7% 1.2% 0.3% 0.3% 0.2% 0.2% 0.2%
x264 [info]: mb I I16..4: 4.1% 82.4% 13.5%
x264 [info]: mb P I16..4: 0.6% 14.1% 2.0% P16..4: 28.2% 36.1% 13.5% 1.5% 0.1% skip: 4.0%
x264 [info]: mb B I16..4: 0.1% 1.6% 0.3% B16..8: 37.0% 24.2% 4.0% direct: 5.8% skip:27.0% L0:43.7% L1:43.8% BI:12.5%
x264 [info]: 8x8 transform intra:83.3% inter:64.3%
x264 [info]: coded y,uvDC,uvAC intra: 89.5% 87.4% 62.7% inter: 32.2% 24.8% 4.9%
x264 [info]: i16 v,h,dc,p: 21% 25% 15% 39%
x264 [info]: i8 v,h,dc,ddl,ddr,vr,hd,vl,hu: 11% 9% 7% 9% 13% 12% 13% 11% 14%
x264 [info]: i4 v,h,dc,ddl,ddr,vr,hd,vl,hu: 29% 9% 5% 6% 11% 11% 11% 8% 10%
x264 [info]: i8c dc,h,v,p: 38% 28% 18% 16%
x264 [info]: Weighted P-Frames: Y:4.8% UV:2.7%
x264 [info]: ref P L0: 41.3% 9.5% 17.8% 7.2% 5.9% 4.2% 3.6% 2.0% 1.9% 1.5% 1.4% 1.2% 1.2% 1.1% 0.2% 0.0%
x264 [info]: ref B L0: 69.2% 12.7% 6.1% 3.2% 2.3% 1.8% 1.4% 0.8% 0.7% 0.6% 0.5% 0.3% 0.1%
x264 [info]: ref B L1: 91.2% 8.8%
x264 [info]: kb/s:3005.26
Формат : Matroska
Версия формата : Version 2
Размер файла : 3,77 Гбайт
Продолжительность : 2 ч. 18 м.
Общий поток : 3904 Кбит/сек
Название фильма : Матрица: Перезагрузка / The Matrix Reloaded (2003) [Torrents.Ru]
Дата кодирования : UTC 2014-07-06 20:13:14
Программа кодирования : mkvmerge v5.5.0 ('Healer') built on Apr 24 2012 23:47:03
Библиотека кодирования : libebml v1.2.3 + libmatroska v1.3.0
Видео
Идентификатор : 1
Формат : AVC
Формат/Информация : Advanced Video Codec
Профиль формата : High@L4.1
Параметр CABAC формата : Да
Параметр ReFrames формата : 14 кадров
Идентификатор кодека : V_MPEG4/ISO/AVC
Продолжительность : 2 ч. 18 м.
Битрейт : 2930 Кбит/сек
Ширина : 1120 пикселей
Высота : 466 пикселей
Соотношение сторон : 2,40:1
Частота кадров : 23,976 кадра/сек
Цветовое пространство : YUV
Субдискретизация насыщенности : 4:2:0
Битовая глубина : 8 бит
Тип развёртки : Прогрессивная
Бит/(Пиксели*Кадры) : 0.234
Размер потока : 2,83 Гбайт (75%)
Заголовок : The Matrix Reloaded_HDDVDRip_cw
Библиотека кодирования : x264 core 142 r2431 ac76440
Настройки программы : cabac=1 / ref=14 / deblock=1:-2:-1 / analyse=0x3:0x133 / me=umh / subme=11 / psy=1 / psy_rd=1.00:0.00 / mixed_ref=1 / me_range=32 / chroma_me=1 / trellis=2 / 8x8dct=1 / cqm=0 / deadzone=21,11 / fast_pskip=1 / chroma_qp_offset=-2 / threads=4 / lookahead_threads=1 / sliced_threads=0 / slices=4 / nr=0 / decimate=1 / interlaced=0 / bluray_compat=0 / constrained_intra=0 / bframes=16 / b_pyramid=2 / b_adapt=2 / b_bias=0 / direct=1 / weightb=1 / open_gop=0 / weightp=2 / keyint=240 / keyint_min=23 / scenecut=40 / intra_refresh=0 / rc_lookahead=60 / rc=crf / mbtree=0 / crf=17.9 / qcomp=0.65 / qpmin=0 / qpmax=69 / qpstep=4 / vbv_maxrate=50000 / vbv_bufsize=62500 / crf_max=0.0 / nal_hrd=none / filler=0 / ip_ratio=1.40 / pb_ratio=1.30 / aq=2:0.90
Язык : English
Default : Да
Forced : Нет
Аудио #1
Идентификатор : 2
Формат : AC-3
Формат/Информация : Audio Coding 3
Расширение режима : CM (complete main)
Параметр Endianness формата : Big
Идентификатор кодека : A_AC3
Продолжительность : 2 ч. 18 м.
Вид битрейта : Постоянный
Битрейт : 448 Кбит/сек
Каналы : 6 каналов
Расположение каналов : Front: L C R, Side: L R, LFE
Частота : 48,0 КГц
Битовая глубина : 16 бит
Метод сжатия : С потерями
Размер потока : 443 Мбайт (11%)
Заголовок : Дубляж
Язык : Russian
Default : Да
Forced : Нет
Аудио #2
Идентификатор : 3
Формат : AC-3
Формат/Информация : Audio Coding 3
Расширение режима : CM (complete main)
Параметр Endianness формата : Big
Идентификатор кодека : A_AC3
Продолжительность : 2 ч. 18 м.
Вид битрейта : Постоянный
Битрейт : 448 Кбит/сек
Каналы : 6 каналов
Расположение каналов : Front: L C R, Side: L R, LFE
Частота : 48,0 КГц
Битовая глубина : 16 бит
Метод сжатия : С потерями
Размер потока : 443 Мбайт (11%)
Заголовок : Оригинал
Язык : English
Default : Нет
Forced : Нет
Текст #1
Идентификатор : 4
Формат : UTF-8
Идентификатор кодека : S_TEXT/UTF8
Идентификатор кодека/Информация : UTF-8 Plain Text
Язык : Russian
Default : Да
Forced : Нет
Текст #2
Идентификатор : 5
Формат : UTF-8
Идентификатор кодека : S_TEXT/UTF8
Идентификатор кодека/Информация : UTF-8 Plain Text
Язык : Ukrainian
Default : Нет
Forced : Нет
Текст #3
Идентификатор : 6
Формат : UTF-8
Идентификатор кодека : S_TEXT/UTF8
Идентификатор кодека/Информация : UTF-8 Plain Text
Язык : English
Default : Нет
Forced : Нет
Меню
00:00:00.000 : en:CHAPTER 01
00:03:50.230 : en:CHAPTER 02
00:08:55.368 : en:CHAPTER 03
00:12:16.903 : en:CHAPTER 04
00:16:24.317 : en:CHAPTER 05
00:19:43.182 : en:CHAPTER 06
00:23:29.408 : en:CHAPTER 07
00:27:26.812 : en:CHAPTER 08
00:32:01.253 : en:CHAPTER 09
00:33:43.188 : en:CHAPTER 10
00:37:57.442 : en:CHAPTER 11
00:40:55.620 : en:CHAPTER 12
00:43:44.956 : en:CHAPTER 13
00:50:42.706 : en:CHAPTER 14
00:55:08.472 : en:CHAPTER 15
01:00:03.099 : en:CHAPTER 16
01:02:49.766 : en:CHAPTER 17
01:08:52.295 : en:CHAPTER 18
01:13:06.882 : en:CHAPTER 19
01:16:21.410 : en:CHAPTER 20
01:20:31.827 : en:CHAPTER 21
01:22:47.129 : en:CHAPTER 22
01:26:12.501 : en:CHAPTER 23
01:29:52.887 : en:CHAPTER 24
01:32:50.899 : en:CHAPTER 25
01:37:10.825 : en:CHAPTER 26
01:40:51.379 : en:CHAPTER 27
01:44:57.791 : en:CHAPTER 28
01:48:12.152 : en:CHAPTER 29
01:52:25.572 : en:CHAPTER 30
01:55:42.936 : en:CHAPTER 31
01:57:37.550 : en:CHAPTER 32
02:01:51.471 : en:CHAPTER 33
02:04:18.451 : en:CHAPTER 34
02:07:04.116 : en:CHAPTER 35
02:16:29.681 : en:CHAPTER 36
Скриншоты
Сравнение с исходником Матрица: Революция / The Matrix Revolutions (2003)Матрица: Революция / The Matrix Revolutions
Страна: США
Жанр: Фантастика Боевик
Год выпуска: 2003
Продолжительность: 02:09:15-Cубтитры: английские, русские, украинские
Оригинальная аудиодорожка: английский -В ролях-Киану Ривз, Кэрри-Энн Мосс, Лоренс Фишбёрн, Хьюго Уивинг, Моника Беллуччи, Брюс Спенс, Джада Пинкетт Смит, Хэролд Перрино, Гарри Дж. Ленникс, Хельмут Бакайтис-ОПИСАНИЕ-Пока армия Машин пытается уничтожить Зион, его жители из последних сил держат оборону. Но удастся ли им предотвратить полное вторжение в город кишащей орды беспощадных машин до того, как Нео соберет все свои силы и положит конец войне?
- -Качество видео: HDDVDRip
Исходное видео: HDDVD |HDClub|-Контейнер: MKV-Видео: AVC, 1120x466 (2,40:1), ~3500 kbps, 23,976 fps,
Аудио: АС-3, 448 kbps, Dolby Digital, 4 (Front: L C R, Side: C) ch, 48 KHz |Дубляж|
Аудио: АС-3, 448 kbps, Dolby Digital, 4 (Front: L C R, Side: C) ch, 48 KHz |Оригинал|
Формат субтитров: softsub (SRT)
Главы: есть--

MediaInfo
x264
VIDEO ENCODING
------------------------------
Encoding video to: F:\Temp\0245.264
x264 Q17.8 1920x1080 23.976fps (185957 frames)
avs4x264.exe: -L x264_64.exe --crf 17.8 --preset veryslow --profile high --level 4.1 --ref 14 --aq-mode 2 --aq-strength 0.90 --deblock -2:-1 --merange 32 --bframes 16 --direct spatial --qcomp 0.65 --vbv-maxrate 50000 --vbv-bufsize 62500 --subme 11 --no-mbtree --keyint 240 --slices 4 --sar 1:1 --output "F:\Temp\0245.264" "F:\Temp\0245.avs"
raw [info]: 1120x466p 1:1 @ 24000/1001 fps (cfr)
x264 [info]: using SAR=1/1
x264 [info]: using cpu capabilities: MMX2 SSE2Fast LZCNT
x264 [info]: profile High, level 4.1
x264 [info]: frame I:1450 Avg QP:16.06 size: 69445
x264 [info]: frame P:40496 Avg QP:18.03 size: 32360
x264 [info]: frame B:144011 Avg QP:20.41 size: 13809
x264 [info]: consecutive B-frames: 3.2% 2.7% 6.2% 18.3% 18.1% 32.3% 7.9% 5.0% 1.8% 1.5% 0.9% 0.7% 0.5% 0.4% 0.1% 0.2% 0.2%
x264 [info]: mb I I16..4: 4.2% 83.0% 12.8%
x264 [info]: mb P I16..4: 0.9% 19.3% 2.6% P16..4: 27.3% 33.0% 11.7% 1.3% 0.1% skip: 3.9%
x264 [info]: mb B I16..4: 0.2% 3.5% 0.5% B16..8: 34.6% 22.9% 4.1% direct: 6.5% skip:27.7% L0:44.7% L1:42.8% BI:12.5%
x264 [info]: 8x8 transform intra:84.1% inter:65.0%
x264 [info]: coded y,uvDC,uvAC intra: 90.5% 87.8% 63.8% inter: 32.4% 30.3% 8.3%
x264 [info]: i16 v,h,dc,p: 34% 17% 13% 35%
x264 [info]: i8 v,h,dc,ddl,ddr,vr,hd,vl,hu: 11% 8% 7% 9% 13% 13% 13% 11% 15%
x264 [info]: i4 v,h,dc,ddl,ddr,vr,hd,vl,hu: 27% 7% 5% 7% 12% 11% 11% 9% 11%
x264 [info]: i8c dc,h,v,p: 41% 26% 17% 16%
x264 [info]: Weighted P-Frames: Y:11.2% UV:8.1%
x264 [info]: ref P L0: 38.8% 8.0% 17.6% 7.7% 6.3% 4.7% 4.1% 2.4% 2.2% 1.8% 1.7% 1.5% 1.4% 1.3% 0.4% 0.0%
x264 [info]: ref B L0: 66.3% 12.8% 6.4% 3.5% 2.6% 2.2% 1.8% 1.1% 1.0% 0.9% 0.8% 0.5% 0.2%
x264 [info]: ref B L1: 91.1% 8.9%
x264 [info]: kb/s:3506.82
ормат : Matroska
Версия формата : Version 2
Размер файла : 3,98 Гбайт
Продолжительность : 2 ч. 9 м.
Общий поток : 4406 Кбит/сек
Название фильма : Матрица: Революция / The Matrix Revolutions (2003) [Torrents.Ru]
Дата кодирования : UTC 2014-07-07 17:58:55
Программа кодирования : mkvmerge v5.5.0 ('Healer') built on Apr 24 2012 23:47:03
Библиотека кодирования : libebml v1.2.3 + libmatroska v1.3.0
Видео
Идентификатор : 1
Формат : AVC
Формат/Информация : Advanced Video Codec
Профиль формата : High@L4.1
Параметр CABAC формата : Да
Параметр ReFrames формата : 14 кадров
Идентификатор кодека : V_MPEG4/ISO/AVC
Продолжительность : 2 ч. 9 м.
Битрейт : 3422 Кбит/сек
Ширина : 1120 пикселей
Высота : 466 пикселей
Соотношение сторон : 2,40:1
Частота кадров : 23,976 кадра/сек
Цветовое пространство : YUV
Субдискретизация насыщенности : 4:2:0
Битовая глубина : 8 бит
Тип развёртки : Прогрессивная
Бит/(Пиксели*Кадры) : 0.273
Размер потока : 3,09 Гбайт (78%)
Заголовок : The Matrix Revolutions_HDDVDRip_cw
Библиотека кодирования : x264 core 142 r2431 ac76440
Настройки программы : cabac=1 / ref=14 / deblock=1:-2:-1 / analyse=0x3:0x133 / me=umh / subme=11 / psy=1 / psy_rd=1.00:0.00 / mixed_ref=1 / me_range=32 / chroma_me=1 / trellis=2 / 8x8dct=1 / cqm=0 / deadzone=21,11 / fast_pskip=1 / chroma_qp_offset=-2 / threads=4 / lookahead_threads=1 / sliced_threads=0 / slices=4 / nr=0 / decimate=1 / interlaced=0 / bluray_compat=0 / constrained_intra=0 / bframes=16 / b_pyramid=2 / b_adapt=2 / b_bias=0 / direct=1 / weightb=1 / open_gop=0 / weightp=2 / keyint=240 / keyint_min=23 / scenecut=40 / intra_refresh=0 / rc_lookahead=60 / rc=crf / mbtree=0 / crf=17.8 / qcomp=0.65 / qpmin=0 / qpmax=69 / qpstep=4 / vbv_maxrate=50000 / vbv_bufsize=62500 / crf_max=0.0 / nal_hrd=none / filler=0 / ip_ratio=1.40 / pb_ratio=1.30 / aq=2:0.90
Язык : English
Default : Да
Forced : Нет
Аудио #1
Идентификатор : 2
Формат : AC-3
Формат/Информация : Audio Coding 3
Расширение режима : CM (complete main)
Параметр Endianness формата : Big
Идентификатор кодека : A_AC3
Продолжительность : 2 ч. 9 м.
Вид битрейта : Постоянный
Битрейт : 448 Кбит/сек
Каналы : 6 каналов
Расположение каналов : Front: L C R, Side: L R, LFE
Частота : 48,0 КГц
Битовая глубина : 16 бит
Метод сжатия : С потерями
Размер потока : 414 Мбайт (10%)
Заголовок : Дубляж
Язык : Russian
Default : Да
Forced : Нет
Аудио #2
Идентификатор : 3
Формат : AC-3
Формат/Информация : Audio Coding 3
Расширение режима : CM (complete main)
Параметр Endianness формата : Big
Идентификатор кодека : A_AC3
Продолжительность : 2 ч. 9 м.
Вид битрейта : Постоянный
Битрейт : 448 Кбит/сек
Каналы : 6 каналов
Расположение каналов : Front: L C R, Side: L R, LFE
Частота : 48,0 КГц
Битовая глубина : 16 бит
Метод сжатия : С потерями
Размер потока : 414 Мбайт (10%)
Заголовок : Оригинал
Язык : English
Default : Нет
Forced : Нет
Текст #1
Идентификатор : 4
Формат : UTF-8
Идентификатор кодека : S_TEXT/UTF8
Идентификатор кодека/Информация : UTF-8 Plain Text
Язык : Russian
Default : Да
Forced : Нет
Текст #2
Идентификатор : 5
Формат : UTF-8
Идентификатор кодека : S_TEXT/UTF8
Идентификатор кодека/Информация : UTF-8 Plain Text
Язык : Ukrainian
Default : Нет
Forced : Нет
Текст #3
Идентификатор : 6
Формат : UTF-8
Идентификатор кодека : S_TEXT/UTF8
Идентификатор кодека/Информация : UTF-8 Plain Text
Язык : English
Default : Нет
Forced : Нет
Меню
00:00:00.000 : en:20 Hours to Go
00:03:55.401 : en:Trapped
00:07:33.119 : en:The Connection Matters
00:10:19.952 : en:Down Here I'm God
00:14:44.383 : en:Coat-Check Chaos
00:17:58.744 : en:Interesting Deal
00:23:33.245 : en:The End Is Coming
00:30:06.304 : en:We Meet at Last
00:35:35.633 : en:The Logos Found
00:39:34.205 : en:Volunteers
00:42:58.909 : en:I Believe in Him
00:46:43.300 : en:Nothing's Changed
00:49:02.606 : en:Stowaway
00:51:53.610 : en:See Your Enemy
00:58:00.643 : en:Give 'em Hell
01:00:19.115 : en:Detected
01:02:29.746 : en:Breaching the Dome
01:08:00.910 : en:Storming Sentinels
01:10:29.225 : en:Trying to Keep Up
01:14:33.802 : en:Unfinished Business
01:18:23.365 : en:Hell of a Pilot
01:23:08.984 : en:Report to the Council
01:25:55.817 : en:Believers
01:29:13.348 : en:Glimpse of the Sky
01:31:51.672 : en:Saying What Matters
01:36:51.472 : en:A Truce
01:41:55.275 : en:It Ends Tonight
01:44:53.120 : en:Urban Splash
01:48:06.646 : en:Neo's Choice
01:51:30.850 : en:Inevitable and Over
01:55:05.899 : en:Real Peace
01:57:31.210 : en:Freedom and Sunlight
02:00:12.371 : en:End Credits
Скриншоты
Сравнение с исходником

_________________
Показать сообщения:    

Текущее время: Сегодня 17:41

Часовой пояс: GMT



Вы не можете начинать темы
Вы не можете отвечать на сообщения
Вы не можете редактировать свои сообщения
Вы не можете удалять свои сообщения
Вы не можете голосовать в опросах
Вы не можете прикреплять файлы к сообщениям
Вы не можете скачивать файлы
Наши партнеры: интернет магазин Ивановского трикотажа textilla.ru