Ивановский Торрент трекер
Яндекс.Погода
 

[Цитировать]
HUNTER

Мастер крутящего момента / Master of Torque
Страна: Япония
Год выпуска: 2014 г.
Жанр: фантастика
Тип: ONA
Продолжительность: 5 мин.
Режиссер: Икехата Хироши
Студия: YAMAHA Motors
Описание: Компания Yamaha представила первый эпизод аниме-сериала под названием «Мастер крутящего момента» (Master of Torque), который был сделан с целью продвижения новых мотоциклов MT-серии. 4-серийный аниме-сериал рассказывает историю троих молодых байкеров, которые живут в вымышленной версии Токио 2017 года, когда все, кажется, ездят на мотоциклах Yamaha MT-09, MT-07 и MT-09 Street Rally.
Качество: WEBRip
Тип релиза: Без хардсаба
Формат видео: MP4
Наличие линковки: Нет
Видео: H264, 8 bits, 1280x720, 1508 kbps, 30fps
Аудио: AAC, 2ch, 192 kbps, 44.1kHz Язык Японский
Субтитры: ass, отдельным файлом Язык субтитров русский ; Перевод: Хитаги ; Редактор: Vadamas
Подробные тех. данные
Format : MPEG-4Format profile : Base Media / Version 2Codec ID : mp42File size : 68.6 MiBDuration : 5mn 38sOverall bit rate mode : VariableOverall bit rate : 1 703 Kbps
VideoID : 1Format : AVCFormat/Info : Advanced Video CodecFormat profile : High@L3.1Format settings, CABAC : YesFormat settings, ReFrames : 1 frameCodec ID : avc1Codec ID/Info : Advanced Video CodingDuration : 5mn 38sBit rate : 1 508 KbpsMaximum bit rate : 5 569 KbpsWidth : 1 280 pixelsHeight : 720 pixelsDisplay aspect ratio : 16:9Frame rate mode : ConstantFrame rate : 30.000 fpsColor space : YUVChroma subsampling : 4:2:0Bit depth : 8 bitsScan type : ProgressiveBits/(Pixel*Frame) : 0.055Stream size : 60.8 MiB (89%)
AudioID : 2Format : AACFormat/Info : Advanced Audio CodecFormat profile : LCCodec ID : 40Duration : 5mn 38sBit rate mode : VariableBit rate : 192 KbpsMaximum bit rate : 201 KbpsChannel count : 2 channelsChannel positions : Front: L RSampling rate : 44.1 KHzCompression mode : LossyStream size : 7.74 MiB (11%)
Список серий
1. Idle Roughness
2. Understeer
Скриншоты
Показать сообщения:    

Текущее время: 19-Окт 17:14

Часовой пояс: UTC - 1


Вы не можете начинать темы
Вы не можете отвечать на сообщения
Вы не можете редактировать свои сообщения
Вы не можете удалять свои сообщения
Вы не можете голосовать в опросах
Вы не можете прикреплять файлы к сообщениям
Вы не можете скачивать файлы

!ВНИМАНИЕ!
Сайт не предоставляет электронные версии произведений, а занимается лишь коллекционированием и каталогизацией ссылок, присылаемых и публикуемых на форуме нашими читателями. Если вы являетесь правообладателем какого-либо представленного материала и не желаете, чтобы ссылка на него находилась в нашем каталоге, свяжитесь с нами, и мы незамедлительно удалим ее. Файлы для обмена на трекере предоставлены пользователями сайта, и администрация не несет ответственности за их содержание. Просьба не заливать файлы, защищенные авторскими правами, а также файлы нелегального содержания!