Ивановский Торрент трекер
Яндекс.Погода
 

[Цитировать]
HUNTER

Мастер и Маргарита
Театральная версия
Год выпуска: 1994 (2011)
Страна: Россия
Жанр: Мистика, драма, детектив
Продолжительность: 02:03:10
Навигация по главам: есть
Режиссер: Юрий Кара
В ролях: Михаил Ульянов, Валентин Гафт, Анастасия Вертинская, Виктор Раков, Александр Филиппенко, Сергей Гармаш, Лев Дуров, Сергей Никоненко, Николай Бурляев, Леонид Куравлёв-Описание: Действие происходит в 1920—1930-е годы в сталинской Москве и в годы жизни Иисуса Христа в Ершалаиме. Мастер с гениальным озарением описал последние дни жизни Спасителя в своем романе о Понтии Пилате, за который поплатился свободой. Его тайная возлюбленная Маргарита готова на сделку с дьяволом, лишь бы спасти Мастера. В это время некто Воланд, посетивший Москву со своей свитой, наводит ужас на обывателей. Но в мире, где укоренилось зло, и засела нечистая сила, проделки сатаны, окрашенные искрометным юмором, оборачиваются возмездием за людские грехи и пороки.-Бюджет: $15 000 000-Рейтинг IMDB: 7.3/10 (180)
Рейтинг кинопоиска: 6.1/10 (818)-Качество: BDRip
Формат: Matroska
Видео: x264; 982x720 (4:3); ~4440 kbps; 24 fps; 0.262 bpp
Аудио: Russian; AC3; 5.1; 48 kHz; 640 kbps; 16 bit-

MI

General
Unique ID : 185695525726675386256118704292449016968 (0x8BB3A84852E3DB05AC66785294FCDC88)
Complete name : Мастер.и.Маргарита.1994.BDRip.[zoneland.ru].mkv
Format : Matroska
File size : 4.37 GiB
Duration : 2h 3mn
Overall bit rate : 5 081 Kbps
Movie name : Мастер и Маргарита 1994 BDRip - zoneland.ru
Encoded date : UTC 2011-05-14 18:22:21
Writing application : mkvmerge v4.6.0 ('Still Crazy After All These Years') built on Mar 10 2011 02:50:32
Writing library : libebml v1.2.0 + libmatroska v1.1.0
Video
ID : 1
Format : AVC
Format/Info : Advanced Video Codec
Format profile : High@L4.1
Format settings, CABAC : Yes
Format settings, ReFrames : 11 frames
Codec ID : V_MPEG4/ISO/AVC
Duration : 2h 3mn
Bit rate : 4 440 Kbps
Width : 982 pixels
Height : 720 pixels
Display aspect ratio : 4:3
Frame rate : 24.000 fps
Color space : YUV
Chroma subsampling : 4:2:0
Bit depth : 8 bits
Scan type : Progressive
Bits/(Pixel*Frame) : 0.262
Stream size : 3.73 GiB (85%)
Title : x264; 982x720 (4:3); ~4400 kbps; 24 fps; 0.262 bpp
Writing library : x264 core 115 r1947 b5a8ad7
Encoding settings : cabac=1 / ref=11 / deblock=1:-3:-3 / analyse=0x3:0x113 / me=umh / subme=10 / psy=1 / psy_rd=1.10:0.05 / mixed_ref=1 / me_range=48 / chroma_me=1 / trellis=2 / 8x8dct=1 / cqm=0 / deadzone=21,11 / fast_pskip=0 / chroma_qp_offset=-3 / threads=3 / sliced_threads=0 / nr=0 / decimate=1 / interlaced=0 / bluray_compat=0 / constrained_intra=0 / bframes=10 / b_pyramid=2 / b_adapt=2 / b_bias=0 / direct=3 / weightb=1 / open_gop=0 / weightp=2 / keyint=250 / keyint_min=24 / scenecut=40 / intra_refresh=0 / rc_lookahead=50 / rc=2pass / mbtree=1 / bitrate=4440 / ratetol=1.0 / qcomp=0.60 / qpmin=0 / qpmax=69 / qpstep=4 / cplxblur=20.0 / qblur=0.5 / vbv_maxrate=50000 / vbv_bufsize=50000 / nal_hrd=none / ip_ratio=1.40 / aq=1:0.95
Language : Russian
Matrix coefficients : BT.709-5, BT.1361, IEC 61966-2-4 709, SMPTE RP177
Audio
ID : 2
Format : AC-3
Format/Info : Audio Coding 3
Mode extension : CM (complete main)
Codec ID : A_AC3
Duration : 2h 3mn
Bit rate mode : Constant
Bit rate : 640 Kbps
Channel(s) : 6 channels
Channel positions : Front: L C R, Side: L R, LFE
Sampling rate : 48.0 KHz
Bit depth : 16 bits
Compression mode : Lossy
Stream size : 564 MiB (13%)
Title : AC3; 5.1; 48 kHz; 640 kbps; 16 bit
Language : Russian
Menu
00:00:00.000 : :Chapter 01
00:07:21.083 : :Chapter 02
00:18:49.166 : :Chapter 03
00:26:21.375 : :Chapter 04
00:36:36.958 : :Chapter 05
00:50:56.916 : :Chapter 06
00:58:55.541 : :Chapter 07
01:11:31.125 : :Chapter 08
01:26:52.625 : :Chapter 09
01:46:22.000 : :Chapter 10
02:01:00.000 : :Chapter 11

x264 log

avs [info]: 982x720p 1:1 @ 24/1 fps (cfr)
x264 [warning]: --psnr used with psy on: results will be invalid!
x264 [warning]: --tune psnr should be used if attempting to benchmark psnr!
x264 [info]: using SAR=1/1
x264 [info]: using cpu capabilities: MMX2 SSE2Fast SSSE3 FastShuffle SSE4.1 Cache64
x264 [info]: profile High, level 4.1
x264 [info]: frame I:1015  Avg QP:16.88  size: 82903  PSNR Mean Y:45.17 U:49.20 V:48.98 Avg:46.10 Global:45.56
x264 [info]: frame P:33635 Avg QP:19.06  size: 44856  PSNR Mean Y:44.00 U:47.88 V:47.66 Avg:44.90 Global:44.39
x264 [info]: frame B:142728 Avg QP:22.77  size: 17572  PSNR Mean Y:41.63 U:46.49 V:46.20 Avg:42.67 Global:42.14
x264 [info]: consecutive B-frames:  1.2%  0.8%  2.7% 16.5% 17.6% 41.2%  9.8%  4.8%  3.4%  1.4%  0.7%
x264 [info]: mb I  I16..4: 13.7% 68.8% 17.5%
x264 [info]: mb P  I16..4:  4.1% 10.7%  1.3%  P16..4: 37.2% 25.8% 13.2%  0.0%  0.0%    skip: 7.7%
x264 [info]: mb B  I16..4:  0.4%  1.5%  0.1%  B16..8: 38.8% 12.7%  3.3%  direct:12.8%  skip:30.4%  L0:46.5% L1:39.9% BI:13.5%
x264 [info]: 8x8 transform intra:69.3% inter:59.6%
x264 [info]: direct mvs  spatial:98.3% temporal:1.7%
x264 [info]: coded y,uvDC,uvAC intra: 66.1% 70.3% 43.2% inter: 38.8% 40.7% 8.2%
x264 [info]: i16 v,h,dc,p: 65% 17%  7% 10%
x264 [info]: i8 v,h,dc,ddl,ddr,vr,hd,vl,hu: 12% 10% 11%  9% 13% 13% 11% 11% 10%
x264 [info]: i4 v,h,dc,ddl,ddr,vr,hd,vl,hu: 13% 10%  7%  8% 13% 14% 12% 11% 11%
x264 [info]: i8c dc,h,v,p: 47% 20% 21% 12%
x264 [info]: Weighted P-Frames: Y:16.6% UV:10.1%
x264 [info]: ref P L0: 35.0%  8.6% 17.2%  8.3%  6.8%  5.4%  5.0%  3.4%  3.3%  3.1%  3.2%  0.7%  0.0%
x264 [info]: ref B L0: 64.9% 13.9%  6.8%  3.8%  2.9%  2.5%  2.2%  1.6%  1.0%  0.5%
x264 [info]: ref B L1: 90.9%  9.1%
x264 [info]: SSIM Mean Y:0.9721489 (15.552db)
x264 [info]: PSNR Mean Y:42.100 U:46.769 V:46.495 Avg:43.115 Global:42.497 kb/s:4438.98
encoded 177378 frames, 1.86 fps, 4438.98 kb/s

Сравнение с исходником

Rip | Source-

-
Показать сообщения:    

Текущее время: 20-Сен 12:02

Часовой пояс: UTC - 1


Вы не можете начинать темы
Вы не можете отвечать на сообщения
Вы не можете редактировать свои сообщения
Вы не можете удалять свои сообщения
Вы не можете голосовать в опросах
Вы не можете прикреплять файлы к сообщениям
Вы не можете скачивать файлы

!ВНИМАНИЕ!
Сайт не предоставляет электронные версии произведений, а занимается лишь коллекционированием и каталогизацией ссылок, присылаемых и публикуемых на форуме нашими читателями. Если вы являетесь правообладателем какого-либо представленного материала и не желаете, чтобы ссылка на него находилась в нашем каталоге, свяжитесь с нами, и мы незамедлительно удалим ее. Файлы для обмена на трекере предоставлены пользователями сайта, и администрация не несет ответственности за их содержание. Просьба не заливать файлы, защищенные авторскими правами, а также файлы нелегального содержания!