Важное объявление!
У Нас Все раздачи мультитрекерные, при нуле пиров в релизах, можете смело вставать на закачку!
 
Автор Сообщение

HUNTER

Стаж:
4 года 8 месяцев
Сообщений:
61987

Репутация: 101

[+] [-]
Вне форума [Профиль] [ЛС]


Мастер-класс: Связки разных стилей танца-Год выпуска: 2006
Страна: Россия
Сайт производителя: Отсутствует
Тематика: танцы
Тип материала: Обучающее видео-Продолжительность: 00:54:31
Автор: Наталья Беккер-Язык: Русский
Субтитры: отсутствуют-Описание: В данной программе Наталья Беккер дает несколько связок, в том числе трайбл на Всемирной танцевальной конвенции в Москве на Крокус-Экспо 2006.-Качество: DVDRip
Формат: AVI
Видео кодек: XviD
Аудио кодек: MP3
Видео: 720x576 (1.25:1), 25 fps, XviD build 46 ~1023 kbps avg, 0.10 bit/pixel
Аудио: 44.100 kHz, MPEG Layer 3, 2 ch, ~187.60 kbps avg-

MediaInfo

Код: copyText_writeLink('this.parentNode.parentNode.nextSibling.nextSibling'); Общее
Полное имя : D:\обуч\Bekker Natal'ya.avi
Формат : AVI
Формат/Информация : Audio Video Interleave
Размер файла : 477 Мбайт
Продолжительность : 54 м.
Общий поток : 1224 Кбит/сек
Программа кодирования : MEncoder Sherpya-SVN-r25088-4.2.1
Библиотека кодирования : MPlayer
Видео
Идентификатор : 0
Формат : MPEG-4 Visual
Профиль формата : Simple@L3
Параметр BVOP формата : Нет
Параметр QPel формата : Нет
Параметр GMC формата : Без точки перехода
Параметр матрицы формата : Default (H.263)
Идентификатор кодека : XVID
Идентификатор кодека/Подсказка : XviD
Продолжительность : 54 м.
Битрейт : 1024 Кбит/сек
Ширина : 720 пикселей
Высота : 576 пикселей
Соотношение сторон : 4:3
Соотношение сторон в оригинале : 5:4
Частота кадров : 25,000 кадров/сек
Стандарт вещания : PAL
Цветовое пространство : YUV
Субдискретизация насыщенности : 4:2:0
Битовая глубина : 8 бит
Тип развёртки : Прогрессивная
Метод сжатия : С потерями
Бит/(Пиксели*Кадры) : 0.099
Размер потока : 399 Мбайт (84%)
Библиотека кодирования : XviD 1.1.2 (UTC 2006-11-01)
Аудио
Идентификатор : 1
Формат : MPEG Audio
Версия формата : Version 1
Профиль формата : Layer 3
Режим : Joint stereo
Расширение режима : MS Stereo
Идентификатор кодека : 55
Идентификатор кодека/Подсказка : MP3
Продолжительность : 54 м.
Вид битрейта : Постоянный
Битрейт : 32,0 Кбит/сек
Каналы : 2 канала
Частота : 44,1 КГц
Метод сжатия : С потерями
Размер потока : 73,1 Мбайт (15%)
Выравнивание : Соединение по промежуткам
Продолжительность промежутка : 26 мс. (0,65 видеокадр)
Время предзагрузки промежутка : 88 мс.
Библиотека кодирования : LAME3.97

Скриншоты

-

_________________
Показать сообщения:    

Текущее время: Сегодня 08:41

Часовой пояс: GMT



Вы не можете начинать темы
Вы не можете отвечать на сообщения
Вы не можете редактировать свои сообщения
Вы не можете удалять свои сообщения
Вы не можете голосовать в опросах
Вы не можете прикреплять файлы к сообщениям
Вы не можете скачивать файлы
Наши партнеры: интернет магазин Ивановского трикотажа textilla.ru