Ивановский Торрент трекер
Яндекс.Погода
 

[Цитировать]
HUNTER

Мастер-класс по нанесению декоративных покрытий "Оптимист"
Страна: Россия
Тематика: Строительство
Тип раздаваемого материала: Видеоурок
Продолжительность: 1:23:30
Язык: Русский
Перевод: Не требуется
Описание: Декоративные покрытия, выпускаемые под маркой Optimist-Elite (например, декоративная штукатурка), позволяют справиться с самыми сложными задачами в ходе реставрации и декоративной обработки поверхностей. Декоративная штукатурка может подчеркнуть стилевые особенности зданий и отдельных помещений, вернуть былую яркость интерьеру и даже придать ему художественную ценность. Декоративная штукатурка и другие декоративные покрытия от компании «Оптимист» могут имитировать мрамор ли гранит, иметь перламутровый эффект, а также – позолоченный оттенок. Именно поэтому применение декоративной штукатурки Optimist-Elite – отличное решение при работе над реставрацией архитектурных памятников, а также – отделке помещений элитного жилья.
Рип:http://rutracker.org/forum/viewtopic.php?t=1312259
Доп. информация:
Video
Format : AVC
Format/Info : Advanced Video Codec
Format profile : High@L5.1
Format settings, CABAC : Yes
Format settings, ReFrames : 1 frame
Codec ID : H264
Bit rate : 778 Kbps
Width : 768 pixels
Height : 576 pixels
Display aspect ratio : 4:3
Frame rate : 25.000 fps
Color space : YUV
Chroma subsampling : 4:2:0
Bit depth : 8 bits
Scan type : Progressive
Bits/(Pixel*Frame) : 0.070
Stream size : 54.5 MiB (88%)
Audio
ID : 1 Format : MPEG Audio
Format version : Version 1
Format profile : Layer 3
Codec ID : 55
Codec ID/Hint : MP3
Bit rate mode : Constant
Bit rate : 96.0 Kbps
Channel(s) : 2 channels
Sampling rate : 44.1 KHz
Compression mode : Lossy
Stream size : 6.72 MiB (11%)
Alignment : Split accross interleaves
Interleave, duration : 80 ms (2.00 video frames)
Writing library : LAMELAME_MAJOR_VERSI
Качество: DVDRip
Формат: AVI
Видео кодек: H.264
Аудио кодек: MP3
Видео: Format : AVC Format/Info : Advanced Video Codec Format profile : High@L5.1
Аудио: Format : MPEG Audio Format version : Version 1 Format profile : Layer 3

Скриншоты





Показать сообщения:    

Текущее время: 12-Дек 08:44

Часовой пояс: UTC ± 0


Вы не можете начинать темы
Вы не можете отвечать на сообщения
Вы не можете редактировать свои сообщения
Вы не можете удалять свои сообщения
Вы не можете голосовать в опросах
Вы не можете прикреплять файлы к сообщениям
Вы не можете скачивать файлы

!ВНИМАНИЕ!
Сайт не предоставляет электронные версии произведений, а занимается лишь коллекционированием и каталогизацией ссылок, присылаемых и публикуемых на форуме нашими читателями. Если вы являетесь правообладателем какого-либо представленного материала и не желаете, чтобы ссылка на него находилась в нашем каталоге, свяжитесь с нами, и мы незамедлительно удалим ее. Файлы для обмена на трекере предоставлены пользователями сайта, и администрация не несет ответственности за их содержание. Просьба не заливать файлы, защищенные авторскими правами, а также файлы нелегального содержания!