Ивановский Торрент трекер
Яндекс.Погода
 

[Цитировать]
HUNTER

Мастер-класс по бильярду. Школа бильярда-
Год выпуска: 2009
Страна: Россия
Сайт производителя: отсутствуeт
Тематика: бильярд
Тип материала: обучающий-Продолжительность: 3 х 00:53:00 (00:53:36; 00:53:03; 00:49:14)
Автор: Аслан Бузуев, Антон Мерцалов, Юрий Пантелеев-Язык: Русский
Субтитры: отсутствуют-Описание: Чемпионы игры на бильярде Аслан Бузуев, Антон Мерцалов, Юрий Пантелеев научат Вас играть и стать спецом среди себе подобных. Сдержанность, внимательность, уверенность в себе, воля к победе – вот чему учит бильярд. И это еще далеко не всё...-Качество: DVDRip
Формат: AVI
Видео кодек: XviD
Аудио кодек: MP3
Видео: 640x480 (1.5:1), 25 fps, XviD MPEG-4, 1788 kbps avg, 0.233 bit/pixel
Аудио: 48 kHz, MPEG Layer 3, 2 ch, 192.00 kbps avg-

Содержание

Фильм состоит из трех частей:
Часть 1. Уроки для начинающих
Часть 2. Упражнения
Часть 3. Тактика и стратегия

MediaInfo

Код: copyText_writeLink('this.parentNode.parentNode.nextSibling.nextSibling'); General
Complete name : E:\Обучение\Master.klass.po.bilyardu.Shkola.bilyarda.(3.serij.iz.3)\Master.klass.po.bilyardu.Shkola.bilyarda.(2.serija.iz.3).Uprazhneniya.2009.XviD.DVDRip.avi
Format : AVI
Format/Info : Audio Video Interleave
File size : 701 MiB
Duration : 53mn 3s
Overall bit rate : 1 847 Kbps
Writing application : VirtualDubMod 1.5.10.2 (build 2540/release)
Writing library : VirtualDubMod build 2540/release
Video
ID : 0
Format : MPEG-4 Visual
Format profile : Advanced Simple@L5
Format settings, BVOP : 1
Format settings, QPel : No
Format settings, GMC : No warppoints
Format settings, Matrix : Default (MPEG)
Codec ID : XVID
Codec ID/Hint : XviD
Duration : 53mn 3s
Bit rate : 1 645 Kbps
Width : 640 pixels
Height : 480 pixels
Display aspect ratio : 4:3
Frame rate : 25.000 fps
Color space : YUV
Chroma subsampling : 4:2:0
Bit depth : 8 bits
Scan type : Progressive
Compression mode : Lossy
Bits/(Pixel*Frame) : 0.214
Stream size : 624 MiB (89%)
Writing library : XviD 1.2.0.dev47 (UTC 2006-11-01)
Audio
ID : 1
Format : AC-3
Format/Info : Audio Coding 3
Mode extension : CM (complete main)
Format settings, Endianness : Big
Codec ID : 2000
Duration : 53mn 3s
Bit rate mode : Constant
Bit rate : 192 Kbps
Channel(s) : 2 channels
Channel positions : Front: L R
Sampling rate : 48.0 KHz
Bit depth : 16 bits
Compression mode : Lossy
Stream size : 72.9 MiB (10%)
Alignment : Split accross interleaves
Interleave, duration : 40 ms (1.00 video frame)
Interleave, preload duration : 500 ms
- -


Показать сообщения:    

Текущее время: 13-Дек 09:29

Часовой пояс: UTC ± 0


Вы не можете начинать темы
Вы не можете отвечать на сообщения
Вы не можете редактировать свои сообщения
Вы не можете удалять свои сообщения
Вы не можете голосовать в опросах
Вы не можете прикреплять файлы к сообщениям
Вы не можете скачивать файлы

!ВНИМАНИЕ!
Сайт не предоставляет электронные версии произведений, а занимается лишь коллекционированием и каталогизацией ссылок, присылаемых и публикуемых на форуме нашими читателями. Если вы являетесь правообладателем какого-либо представленного материала и не желаете, чтобы ссылка на него находилась в нашем каталоге, свяжитесь с нами, и мы незамедлительно удалим ее. Файлы для обмена на трекере предоставлены пользователями сайта, и администрация не несет ответственности за их содержание. Просьба не заливать файлы, защищенные авторскими правами, а также файлы нелегального содержания!