Ивановский Торрент трекер
Яндекс.Погода
 

[Цитировать]
HUNTER

Мастера меча онлайн II | Sword Art Online II
-Год выпуска: 2014
Страна: Япония
Жанр: приключения, фэнтези.
-Режиссёр: Ито Томохико.
Студия: A-1 Pictures Inc. (подробнее...)

-Перевод:
Русские субтитры: [Alvakarp] (временные)-Описание: Несмотря на происшествие с Sword Art Online, игры с виртуальным погружением не были запрещены. А спустя некоторое время вновь стали набирать популярность. И вот, когда уже, казалось бы, все улеглось, VRMMO снова преподносит сюрприз. В Gun Gale Online появляется загадочный игрок, который выстрелом в игре способен убить человека в «реале». Об этом Кадзуто узнает от Сейдзиро Кикуоки, работника «виртуального отдела» МВД. Кикуока-си просит Кирито, как опытного обитателя виртуальных миров, помочь ему разобраться с этим делом. World Art.-Качество: HDTVRip | Формат: MP4 | Тип видео: без хардсаба | Продолжительность: ТВ (>12 эп.), 25 мин. | Видео: [Leopard-Raws]
Видео кодек: H.264
Аудио кодек: AAC
Видео: H.264; 1280x720; ~1835Kbps, 23.976fps; (8 bit)
Аудио: JAP, AAC; 48000Hz; ~192Kbps (2ch);

Скриншоты [превью]
-
Название эпизодов
01.Gun World.

-
MediaInfo

Общее
Полное имя : C:\Users\Home PC\Videos\Аниме\Весна\Sword Art Online II\Sword Art Online II - 01.mp4
Формат : MPEG-4
Профиль формата : Base Media
Идентификатор кодека : isom
Размер файла : 349 Мбайт
Продолжительность : 23 м.
Режим общего битрейта : Переменный
Общий поток : 2030 Кбит/сек
Дата кодирования : UTC 2014-07-05 18:21:20
Дата пометки : UTC 2014-07-05 18:21:20
Видео
Идентификатор : 1
Формат : AVC
Формат/Информация : Advanced Video Codec
Профиль формата : High@L4.1
Параметр CABAC формата : Да
Параметр ReFrames формата : 4 кадра
Идентификатор кодека : avc1
Идентификатор кодека/Информация : Advanced Video Coding
Продолжительность : 23 м.
Битрейт : 1835 Кбит/сек
Максимальный битрейт : 10,1 Мбит/сек
Ширина : 1280 пикселей
Высота : 720 пикселей
Соотношение сторон : 16:9
Режим частоты кадров : Постоянный
Частота кадров : 23,976 кадра/сек
Цветовое пространство : YUV
Субдискретизация насыщенности : 4:2:0
Битовая глубина : 8 бит
Тип развёртки : Прогрессивная
Бит/(Пиксели*Кадры) : 0.083
Размер потока : 315 Мбайт (90%)
Заголовок : 264:fps=23.976@GPAC0.5.1-DEV-rev4283
Библиотека кодирования : x264 core 129 r2245+729M 1a52e03
Настройки программы : cabac=1 / ref=4 / deblock=1:1:-1 / analyse=0x3:0x113 / me=umh / subme=9 / psy=1 / fade_compensate=0.00 / psy_rd=1.00:0.00 / mixed_ref=1 / me_range=24 / chroma_me=1 / trellis=2 / 8x8dct=1 / cqm=0 / deadzone=21,11 / fast_pskip=1 / chroma_qp_offset=-2 / threads=8 / lookahead_threads=1 / sliced_threads=0 / nr=0 / decimate=1 / interlaced=0 / bluray_compat=0 / constrained_intra=0 / fgo=0 / bframes=9 / b_pyramid=2 / b_adapt=2 / b_bias=0 / direct=1 / weightb=1 / open_gop=0 / weightp=2 / keyint=240 / keyint_min=24 / scenecut=40 / intra_refresh=0 / rc=crf / mbtree=0 / crf=18.0 / qcomp=0.72 / qpmin=0 / qpmax=69 / qpstep=4 / ip_ratio=1.40 / pb_ratio=1.30 / aq=1:0.85
Дата кодирования : UTC 2014-07-05 18:21:20
Дата пометки : UTC 2014-07-05 18:21:24
Основные цвета : BT.709
Характеристики трансфера : BT.709
Коэффициенты матрицы : BT.709
Аудио
Идентификатор : 2
Формат : AAC
Формат/Информация : Advanced Audio Codec
Профиль формата : LC
Идентификатор кодека : 40
Продолжительность : 23 м.
Вид битрейта : Переменный
Битрейт : 192 Кбит/сек
Максимальный битрейт : 227 Кбит/сек
Каналы : 2 канала
Расположение каналов : Front: L R
Частота : 48,0 КГц
Метод сжатия : С потерями
Размер потока : 32,9 Мбайт (9%)
Язык : Japanese
Дата кодирования : UTC 2014-07-05 16:30:59
Дата пометки : UTC 2014-07-05 18:21:24
-Внимание! Это обновляемая раздача. Серии добавляются по мере выхода русских субтитров.-
Показать сообщения:    

Текущее время: 18-Окт 10:22

Часовой пояс: UTC - 1


Вы не можете начинать темы
Вы не можете отвечать на сообщения
Вы не можете редактировать свои сообщения
Вы не можете удалять свои сообщения
Вы не можете голосовать в опросах
Вы не можете прикреплять файлы к сообщениям
Вы не можете скачивать файлы

!ВНИМАНИЕ!
Сайт не предоставляет электронные версии произведений, а занимается лишь коллекционированием и каталогизацией ссылок, присылаемых и публикуемых на форуме нашими читателями. Если вы являетесь правообладателем какого-либо представленного материала и не желаете, чтобы ссылка на него находилась в нашем каталоге, свяжитесь с нами, и мы незамедлительно удалим ее. Файлы для обмена на трекере предоставлены пользователями сайта, и администрация не несет ответственности за их содержание. Просьба не заливать файлы, защищенные авторскими правами, а также файлы нелегального содержания!