Ивановский Торрент трекер
Яндекс.Погода
 

[Цитировать]
neon10_10

Маска / The Mask: The Animated Series- Страна: США
Жанр: Мультипликационный сериал, приключения, комедия
Продолжительность: ~22 мин
Год выпуска: 1995-1997
Перевод: Профессиональный (дублированный) ТНТ
Оригинальная аудиодорожка: есть (Eng)
Русские субтитры: нет-Режиссёр: Дэйв Имхофф / Dave Imhoff-Роли озвучивали:
У них: Роб Полсен, Фрэнк Уэлкер, Джим Каммингс, Нил Росс, Марк Л. Тейлор, Тресс МакНилл и др.
У нас: Олег Вирозуб, Мария Овчинникова, Дмитрий Филимонов, Алексей Войтюк и др.-Описание: Стэнли Ипкисс - обычный и не самый удачливый парень, занимающийся воспитанием своей невероятно прыгучей собаки по кличке Майло. Но у него есть секрет: зеленая маска. Эта штука каждую ночь превращает Стэнли в хулигана, авантюриста, экстравагантного типа и отчаянного борца с преступностью. Правда, на утро весь Эдж-Сити оказывается перевернутым вверх дном, из-за чего простому банковскому клерку иной раз приходится не сладко...-Качество: SATRip
Формат: AVI
Видео: 704x528 (4:3), 25 fps, Xvid ~2000 kbps avg, 0.22 bit/pixel
Аудио 1: 48 kHz, AC3 Dolby Digital, 1/0 (C) ch, ~192.00 kbps avg (DUB) ТНТ
Аудио 2: 48 kHz, AC3 Dolby Digital, 2/0 (L,R) ch, ~192.00 kbps avg (Original) English
Субтитры: отсутствуют

Список серий

Сезон 1
01 The Mask Is Always Greener on the Other Side. Part 1 (Маска всегда зеленее с другой стороны. Часть 1)
02 The Mask Is Always Greener on the Other Side. Part 2 (Маска всегда зеленее с другой стороны. Часть 2)
03 The Terrible Twos (Ужасная пара)
04 Baby's Wild Ride (Безумная поездка малыша)
05 Shadow of a Skillit (Тень Скиллита)
06 Sister Mask (Сестра Маска)
07 Bride of Pretorius (Невеста Преториуса)
08 Double Reverse (Двойной оборот)
09 Shrink Rap (Психотерапевтический рэп)
10 Martian Mask (Марсианская маска)
11 Mayor Mask (Мэр Маска)
12 How Much Is That Dog in the Tin Can? (Сколько этой собаке в банке?)
13 All Hallow's Eve (Канун Хэллоуина)
14 Santa Mask (Санта Маска)
15 Split Personality (Раздвоение личности)
Сезон 2
16 Comedy of Eras (Комедия перемещений)
17 Goin' for the Green (Претендент на зелень)
18 Flight as a Feather (Летит как перо)
19 The Good, the Bad and the Fish Guy (Хороший, плохой и Парень-Рыба)
20 Malled (Зашопингованные)
21 Channel Surfin' (Переключатель каналов)
22 Mask au Gratin (Маска в сырном кляре)
23 Jurassic Mask (Маска юрского периода)
24 You Oughta Be in Pictures (Тебе нужно сниматься в кино)
25 For All Mask Kind (Ради всего масковечества)
26 Up the Creek (Вверх по течению)
27 Boogie with the Man (Буги-вуги с Маской)
28 What Goes Around Comes Around (Сколько верёвочке ни виться, конец будет)
29 All Hail the Mask (Все приветствуйте Маску)
30 Power of Suggestion (Сила убеждения)
31 Mr. Mask Goes to Washington (Мистер Маска отправляется в Вашингтон)
32 Rain of Terror (Дождь страха)
33 The Mother of All Hoods (Мама всей братвы)
34 To Bee or Not to Bee (Жужжать или не жужжать)
35 Love Potion No. 8 Ѕ (Любовный эликсир номер 8 с половиной)
36 Cool Hand Mask (Хладнорукий Маска)
37 Broadway Malady (Бродвейская болезнь)
38 Enquiring Masks Want to Know (Интересующиеся маски хотят знать)
39 Future Mask (Маска в будущем)
40 Sealed Fate (Неизбежная судьба)
41 (The Angels Wanna Wear My) Green Mask (Ангелы хотят носить мою зелёную маску)
42 Mutiny of the Bounty Hunters (Восстание наёмных убийц)
43 Convention of Evil (Съезд зла)
44 The Green Marine (Зелёная морская пехота)
45 Counterfeit Mask (Маска-фальшивомонетчик)
Сезон 3
46 Magic (Волшебство)
47 Little Big Mask (Маленькая большая маска)
48 Fantashtick Voyage (Фантастическое путешествие)
49 They Came from Within (Они пришли изнутри)
50 To Have and Have Snot (Владеть и сморкаться)
51 Mystery Cruise (Загадочный круиз)
52 The Goofalotatots (Маленькие шалунишки)
53 When Pigs Ruled the Earth (Когда свиньи правили миром)
54 The Aceman Cometh (Эйс Вентура грядёт)

Отчёт MediaInfo

ОбщееПолное имя : E:\Маска DVDRip (rus +eng)\33.Мама всей братвы.aviФормат : AVIФормат/Информация : Audio Video InterleaveРазмер файла : 359 МбайтПродолжительность : 20 м.Общий поток : 2396 Кбит/секПрограмма кодирования : VirtualDubModRus 1.5.10.2 (build 2542/release)Библиотека кодирования : VirtualDubMod build 2542/release
ВидеоИдентификатор : 0Формат : MPEG-4 VisualПрофиль формата : Advanced Simple@L5Параметр BVOP формата : 1Параметр QPel формата : НетПараметр GMC формата : Без точки переходаПараметр матрицы формата : Default (H.263)Идентификатор кодека : DX50Идентификатор кодека/Подсказка : DivX 5Продолжительность : 20 м.Битрейт : 1997 Кбит/секШирина : 704 пикселяВысота : 528 пикселейСоотношение сторон : 4:3Частота кадров : 25,000 кадров/секЦветовое пространство : YUVСубдискретизация насыщенности : 4:2:0Битовая глубина : 8 битТип развёртки : ПрогрессивнаяМетод сжатия : С потерямиБит/(Пиксели*Кадры) : 0.215Размер потока : 300 Мбайт (83%)Библиотека кодирования : XviD 1.2.1 (UTC 2008-12-04)
Аудио #1Идентификатор : 1Формат : AC-3Формат/Информация : Audio Coding 3Расширение режима : CM (complete main)Параметр Endianness формата : BigИдентификатор кодека : 2000Продолжительность : 20 м.Вид битрейта : ПостоянныйБитрейт : 192 Кбит/секКаналы : 1 каналРасположение каналов : Front: CЧастота : 48,0 КГцБитовая глубина : 16 битМетод сжатия : С потерямиРазмер потока : 28,8 Мбайт (8%)Выравнивание : Разделение по промежуткамПродолжительность промежутка : 40 мс. (1,00 видеокадр)Время предзагрузки промежутка : 500 мс.
Аудио #2Идентификатор : 2Формат : AC-3Формат/Информация : Audio Coding 3Расширение режима : CM (complete main)Параметр Endianness формата : BigИдентификатор кодека : 2000Продолжительность : 20 м.Вид битрейта : ПостоянныйБитрейт : 192 Кбит/секКаналы : 2 каналаРасположение каналов : Front: L RЧастота : 48,0 КГцБитовая глубина : 16 битМетод сжатия : С потерямиРазмер потока : 28,8 Мбайт (8%)Выравнивание : Разделение по промежуткамПродолжительность промежутка : 40 мс. (1,00 видеокадр)Время предзагрузки промежутка : 500 мс.

Скриншоты

-Источник


Показать сообщения:    

Текущее время: 18-Дек 14:56

Часовой пояс: UTC ± 0


Вы не можете начинать темы
Вы не можете отвечать на сообщения
Вы не можете редактировать свои сообщения
Вы не можете удалять свои сообщения
Вы не можете голосовать в опросах
Вы не можете прикреплять файлы к сообщениям
Вы не можете скачивать файлы

!ВНИМАНИЕ!
Сайт не предоставляет электронные версии произведений, а занимается лишь коллекционированием и каталогизацией ссылок, присылаемых и публикуемых на форуме нашими читателями. Если вы являетесь правообладателем какого-либо представленного материала и не желаете, чтобы ссылка на него находилась в нашем каталоге, свяжитесь с нами, и мы незамедлительно удалим ее. Файлы для обмена на трекере предоставлены пользователями сайта, и администрация не несет ответственности за их содержание. Просьба не заливать файлы, защищенные авторскими правами, а также файлы нелегального содержания!