Важное объявление!
У Нас Все раздачи мультитрекерные, при нуле пиров в релизах, можете смело вставать на закачку!
 
Автор Сообщение

HUNTER

Стаж:
4 года 9 месяцев
Сообщений:
65021

Репутация: 101

[+] [-]
Вне форума [Профиль] [ЛС]

Марш к Победе. Дорога на Рим (14 серий из 14) / March To Victory. Road To Rome
Год выпуска: 2007
Страна: США, Creation Films Documentaries
Жанр: Документальный, война, история
Продолжительность: 14 х ~ 00:30:41
Перевод: Одноголосый закадровый
Режиссер: Эдвард Фоурхерд / Edward Feuerherd
Описание: Италия. В 1922 году к власти пришло фашистское правительство во главе с Муссолини. Фашистская Италия захватила Эфиопию (1935-1936), Албанию (1939). Был заключен союз с нацистской Германией, в 1940 году Италия вступила во Вторую мировую войну. В 1943 году режим Муссолини пал, но германские войска оккупировали страну. Против захватчиков развернулось движение Сопротивления. Англо-американские войска совместно с итальянскими партизанами освободили в 1945 году всю страну. В 1946 году Италия была провозглашена республикой.
Документальный сериал о боях, происходивших в пустынях Северной Африки, на скалистых берегах Сицилии, и холмах кровавого Монте-Кассино во время Второй мировой войны.
Доп. информация: IPTVRip by alf62 & awas99
Подобные раздачи, весь сериал: http://rutracker.org/forum/tracker.php?nm=March%20T...ory.%20Road%20To

качество: IPTVRip
формат: AVI
Видео: 704x528 (1.33:1), 25 fps, DivX, ~1852 kbps avg, 0.20 bit/pixel
Аудио: 48 kHz, MPEG Layer 3, 2 ch, ~128.00 kbps avg

Список выпусков/серий

01. Ось из крови и стали / Axis of Blood and Steel.
02. Северная Африка / North Africa.
03. Война на Балканах / War in the Balkans.
04. Крит / Crete.
05. Мальта / Malta.
06. Эль-Аламейн / El Alamein.
07. Кассерин / Kasserine.
08. Сицилия / Sicily.
09. Салермо / Salerno.
10. Касино / Cassino.
11. Анцио / Anzio.
12. Битва за Рим / Battle of Rome.
13. Долина По / The Po Valley.
14. Дополнительные материалы / Bonus Material.

MediaInfo

Марш к победе, Дорога на Рим\Doroga.na.Rim.(14.serij.iz.14).2007.DivX.IPTVRip.alf62.&.awas99\Doroga.na.Rim.(01.serija.iz.14).Os.iz.krovi.istali.2007.DivX.IPTVRip.alf62.&.awas99.avi
Format : AVI
Format/Info : Audio Video Interleave
File size : 460 MiB
Duration : 32mn 20s
Overall bit rate : 1 990 Kbps
Writing application : VirtualDubMod 1.5.10.3 | www.virtualdub-fr.org || (build 2550/release)
Writing library : VirtualDubMod build 2550/release
Video
ID : 0
Format : MPEG-4 Visual
Format profile : Advanced Simple@L5
Format settings, BVOP : 2
Format settings, QPel : No
Format settings, GMC : No warppoints
Format settings, Matrix : Default (MPEG)
Codec ID : DX50
Codec ID/Hint : DivX 5
Duration : 32mn 20s
Bit rate : 1 853 Kbps
Width : 704 pixels
Height : 528 pixels
Display aspect ratio : 4:3
Frame rate : 25.000 fps
Color space : YUV
Chroma subsampling : 4:2:0
Bit depth : 8 bits
Scan type : Progressive
Compression mode : Lossy
Bits/(Pixel*Frame) : 0.199
Stream size : 429 MiB (93%)
Writing library : XviD 73
Audio
ID : 1
Format : MPEG Audio
Format version : Version 1
Format profile : Layer 3
Codec ID : 55
Codec ID/Hint : MP3
Duration : 32mn 20s
Bit rate mode : Constant
Bit rate : 128 Kbps
Channel(s) : 2 channels
Sampling rate : 48.0 KHz
Compression mode : Lossy
Stream size : 29.6 MiB (6%)
Alignment : Aligned on interleaves
Interleave, duration : 40 ms (1.00 video frame)
Interleave, preload duration : 504 ms
Writing library : LAME3.99r
Encoding settings : -m s -V 4 -q 2 -lowpass 17 -b 128

_________________
Показать сообщения:    

Текущее время: Сегодня 18:21

Часовой пояс: GMT



Вы не можете начинать темы
Вы не можете отвечать на сообщения
Вы не можете редактировать свои сообщения
Вы не можете удалять свои сообщения
Вы не можете голосовать в опросах
Вы не можете прикреплять файлы к сообщениям
Вы не можете скачивать файлы