Марш к Победе. Дорога на Берлин (14 серий из 14) / March To Victory. Road To Berlin (Эдвард Фоурхерд / Edward Feuerherd) [2007, Документальный, война, история, IPTVRip] :: Ивановский Торрент трекер
Важное объявление!
У Нас Все раздачи мультитрекерные, при нуле пиров в релизах, можете смело вставать на закачку!
 
Автор Сообщение

HUNTER

Стаж:
4 года 11 месяцев
Сообщений:
66052

Репутация: 101

[+] [-]
Вне форума [Профиль] [ЛС]

Марш к Победе. Дорога на Берлин (14 серий из 14) / March To Victory. Road To Berlin
Год выпуска: 2007
Страна: США, CREANION FILMS documentaries
Жанр: Документальный, война, история
Продолжительность: 14 х ~ 00:44:54
Перевод: Одноголосый закадровый
Режиссер: Эдвард Фоурхерд / Edward Feuerherd
Описание: Вторая мировая война оказала огромное влияние на судьбы человечества. В ней участвовало 61 государство (80% населения земного шара). Военные действия велись на территории 40 государств. В вооружённые силы было мобилизовано 110 млн. чел. Война сопровождалась колоссальными разрушениями, уничтожением десятков тысяч городов и деревень, неисчислимыми бедствиями десятков миллионов людей.
Доп. информация: IPTVRip by alf62 & awas99
Подобные раздачи, весь сериал: http://rutracker.org/forum/tracker.php?nm=March%20T...ory.%20Road%20To

качество: IPTVRip
формат: AVI
Видео: 704x528 (1.33:1), 25 fps, DivX, ~1799 kbps avg, 0.19 bit/pixel
Аудио: 48 kHz, MPEG Layer 3, 2 ch, ~128.00 kbps avg

Список выпусков/серий

1. Приход Гитлера к власти / Rise of Hitler.
2. Польша / Poland.
3. Франция / France.
4. Битва за Британию / Battle of Britain.
5. Битва за Атлантику / Battle of the Atlantic.
6. Операция «Барбаросса» / Barbarossa.
7. Сталинград / Stalingrad.
8. Бомбовая война / Bomber War.
9. Курская битва / Battle of Kursk.
10. Нормандия / Normandy.
11. Операция «Маркет Гарден» / Market Garden.
12. Бастонь / Bastogne.
13. Битва за Берлин / Battle of Berlin.
14. Дополнительные материалы / Bonus Material.

MediaInfo

Doroga.na.Berlin.(14.serij.iz.14).2007.DivX.IPTVRip.alf62.&.awas99\Doroga.na.Berlin.(01.serija.iz.14).Prihod.Gitlera.k.vlasti.2007.DivX.IPTVRip.alf62.&.awas99.avi
Format : AVI
Format/Info : Audio Video Interleave
File size : 622 MiB
Duration : 44mn 53s
Overall bit rate : 1 937 Kbps
Writing application : VirtualDubMod 1.5.10.3 | www.virtualdub-fr.org || (build 2550/release)
Writing library : VirtualDubMod build 2550/release
Video
ID : 0
Format : MPEG-4 Visual
Format profile : Advanced Simple@L5
Format settings, BVOP : 2
Format settings, QPel : No
Format settings, GMC : No warppoints
Format settings, Matrix : Default (MPEG)
Codec ID : DX50
Codec ID/Hint : DivX 5
Duration : 44mn 53s
Bit rate : 1 799 Kbps
Width : 704 pixels
Height : 528 pixels
Display aspect ratio : 4:3
Frame rate : 25.000 fps
Color space : YUV
Chroma subsampling : 4:2:0
Bit depth : 8 bits
Scan type : Progressive
Compression mode : Lossy
Bits/(Pixel*Frame) : 0.194
Stream size : 578 MiB (93%)
Writing library : XviD 73
Audio
ID : 1
Format : MPEG Audio
Format version : Version 1
Format profile : Layer 3
Codec ID : 55
Codec ID/Hint : MP3
Duration : 44mn 53s
Bit rate mode : Constant
Bit rate : 128 Kbps
Channel(s) : 2 channels
Sampling rate : 48.0 KHz
Compression mode : Lossy
Stream size : 41.1 MiB (7%)
Alignment : Aligned on interleaves
Interleave, duration : 40 ms (1.00 video frame)
Interleave, preload duration : 504 ms
Writing library : LAME3.99r
Encoding settings : -m s -V 4 -q 2 -lowpass 17 -b 128

_________________
Показать сообщения:    

Текущее время: Сегодня 08:55

Часовой пояс: GMT



Вы не можете начинать темы
Вы не можете отвечать на сообщения
Вы не можете редактировать свои сообщения
Вы не можете удалять свои сообщения
Вы не можете голосовать в опросах
Вы не можете прикреплять файлы к сообщениям
Вы не можете скачивать файлы