Важное объявление!
У Нас Все раздачи мультитрекерные, при нуле пиров в релизах, можете смело вставать на закачку!
 
Автор Сообщение

HUNTER

Стаж:
4 года 7 месяцев
Сообщений:
61460

Репутация: 101

[+] [-]
Вне форума [Профиль] [ЛС]

Марс. Со щитом или на щите / Horizon. Mars, Death Or Glory
Дата/Год выпуска: 1997
Страна: Великобритания
Жанр: Документальный
Продолжительность: 00:44:03
Перевод: Профессиональный (многоголосый закадровый)
Описание: Марс - четвёртая по удалённости от Солнца и седьмая (предпоследняя) по размерам планета Солнечной системы. Долгие годы он притягивал взгляды ученых, но только современные технологии позволили наконец-то отправить к Марсу исследовательские аппараты и изучить планету, на которой, вероятно, когда-то была жизнь.
Режиссёр: Сэм Робертс / Sam Roberts
Сэмпл: http://sendfile.su/1124361
Запись с телеканала "Звезда".
качество: SATRip
формат: AVI
Видео: XviD 770 Кбит/с 640x480 4:3 25fps
Аудио: MP3 1 ch 64 Кбит/с 44,1 khz

MediaInfo

GeneralComplete name : C:\Documents and Settings\Администратор\Мои документы\Mars, Death Or Glory.aviFormat : AVIFormat/Info : Audio Video InterleaveFile size : 266 MiBDuration : 44mn 3sOverall bit rate : 844 KbpsWriting application : VirtualDubMod 1.5.10.3 | www.virtualdub-fr.org || (build 2550/release)Writing library : VirtualDubMod build 2550/release
VideoID : 0Format : MPEG-4 VisualFormat profile : Advanced Simple@L5Format settings, BVOP : 2Format settings, QPel : NoFormat settings, GMC : No warppointsFormat settings, Matrix : Default (H.263)Codec ID : XVIDCodec ID/Hint : XviDDuration : 44mn 3sBit rate : 770 KbpsWidth : 640 pixelsHeight : 480 pixelsDisplay aspect ratio : 4:3Frame rate : 25.000 fpsColor space : YUVChroma subsampling : 4:2:0Bit depth : 8 bitsScan type : ProgressiveCompression mode : LossyBits/(Pixel*Frame) : 0.100Stream size : 243 MiB (91%)Writing library : XviD 1.2.1 (UTC 2008-12-04)
AudioID : 1Format : MPEG AudioFormat version : Version 1Format profile : Layer 3Codec ID : 55Codec ID/Hint : MP3Duration : 44mn 3sBit rate mode : ConstantBit rate : 64.0 KbpsChannel(s) : 1 channelSampling rate : 44.1 KHzCompression mode : LossyStream size : 20.2 MiB (8%)Alignment : Split accross interleavesInterleave, duration : 40 ms (1.00 video frame)Interleave, preload duration : 500 msWriting library : LAME3.99rEncoding settings : -m m -V 4 -q 5 -lowpass 16.5 -b 64

Скриншоты


_________________
Показать сообщения:    

Текущее время: Сегодня 04:22

Часовой пояс: GMT



Вы не можете начинать темы
Вы не можете отвечать на сообщения
Вы не можете редактировать свои сообщения
Вы не можете удалять свои сообщения
Вы не можете голосовать в опросах
Вы не можете прикреплять файлы к сообщениям
Вы не можете скачивать файлы
Наши партнеры: интернет магазин Ивановского трикотажа textilla.ru