Марк Логан / Mark Logan (Патрик Клайес / Patrick Claeys) [2007, Франция, Италия, Приключения, семейный, DVB] MVO :: Ивановский Торрент трекер
Важное объявление!
У Нас Все раздачи мультитрекерные, при нуле пиров в релизах, можете смело вставать на закачку!
Статистика раздачи
Размер:     |    Зарегистрирован:     |    Скачан:     |   
Нет
 
     
 
 
Автор Сообщение

HUNTER

Стаж:
4 года 11 месяцев
Сообщений:
66098

Репутация: 101

[+] [-]
Вне форума [Профиль] [ЛС]

Марк Логан / Mark Logan
Страна: Франция, Италия
Жанр: Приключения, семейный
Продолжительность: 00:52:35
Год выпуска: 2007
Перевод: Профессиональный (многоголосый закадровый) Канал "Мультимания"
Русские субтитры: нет
Режиссёр: Патрик Клайес / Patrick Claeys
Описание: Эта история происходит в начале XX-ого века. Мальчик 10 лет Марчелло и его отец оставляют свою родную Италию, чтобы сколотить состояние в Америке, выращивая лимоны. Их корабль почти терпит крушение, Марчелло выживает, а его отца смывает за борт. В Америке мальчик сразу же превращается в Марка Логана и начинаются его приключения...
Семпл: https://www.sendspace.com/file/yy3kmt
Качество: DVB
Формат: MPG
Видео: MPEG2, 704:576, (4:3), 2411 Кбит/сек, 25,000 кадров/сек, (0.238 bit/pixel)
Аудио: MP2, 192 Кбит/сек, 48,0 КГц, 2 канала
Субтитры: отсутствуют

Подробные технические данные

ОбщееПолное имя : Марк Логан.mpgФормат : MPEG-PSРазмер файла : 999 МбайтПродолжительность : 52 м.Режим общего битрейта : ПеременныйОбщий поток : 2656 Кбит/сек
ВидеоИдентификатор : 224 (0xE0)Формат : MPEG VideoВерсия формата : Version 2Профиль формата : Main@MainПараметр BVOP формата : ДаПараметр матрицы формата : ВыборочнаяПараметр GOP формата : VariableСтруктура изображения : FrameПродолжительность : 52 м.Вид битрейта : ПеременныйБитрейт : 2411 Кбит/секМаксимальный битрейт : 15,0 Мбит/секШирина : 704 пикселяВысота : 576 пикселейСоотношение сторон : 4:3Частота кадров : 25,000 кадров/секСтандарт вещания : PALЦветовое пространство : YUVСубдискретизация насыщенности : 4:2:0Битовая глубина : 8 битТип развёртки : ЧересстрочнаяПорядок развёртки : Верхнее поле первоеМетод сжатия : С потерямиБит/(Пиксели*Кадры) : 0.238Временной код первого кадра : 00:00:00:00Оригинал временного кода : Group of pictures headerGOP, открыто/закрыто : ОткрытоGOP, открыто/закрыто на первом кадре : ЗакрытоРазмер потока : 907 Мбайт (91%)
АудиоИдентификатор : 192 (0xC0)Формат : MPEG AudioВерсия формата : Version 1Профиль формата : Layer 2Продолжительность : 52 м.Вид битрейта : ПостоянныйБитрейт : 192 Кбит/секКаналы : 2 каналаЧастота : 48,0 КГцМетод сжатия : С потерямиЗадержка видео : 24 мс.Размер потока : 72,2 Мбайт (7%)

Скриншоты

Данный мультфильм впервые раздаётся на рутрекере, а в рунете он впервые с переводом на русском языке. Запись потока *.ts произведена тюнером цифрового телевидения. В связи с тем, что не все плееры воспроизводят поток *.ts (MPEG-TS) , в данном видеофайле мной был сделан ремукс потока *.ts (MPEG-TS) в *.mpg (MPEG-PS) программой VideoReDo.

_________________
Показать сообщения:    

Текущее время: Сегодня 08:56

Часовой пояс: GMT



Вы не можете начинать темы
Вы не можете отвечать на сообщения
Вы не можете редактировать свои сообщения
Вы не можете удалять свои сообщения
Вы не можете голосовать в опросах
Вы не можете прикреплять файлы к сообщениям
Вы не можете скачивать файлы