Важное объявление!
У Нас Все раздачи мультитрекерные, при нуле пиров в релизах, можете смело вставать на закачку!
Статистика раздачи
Размер:     |    Зарегистрирован:     |    Скачан:     |   
Нет
 
     
 
 
Автор Сообщение

HUNTER

Стаж:
5 лет
Сообщений:
67958

Репутация: 101

[+] [-]
Вне форума [Профиль] [ЛС]

Мария, Мирабела-
Год выпуска: 1981
Страна: СССР, Румыния
Жанр: Анимационный фильм
Продолжительность: 01:05:08
Перевод: Профессиональный (дублированный)
Субтитры: нет
Режиссёр: Ион Попеску Гопо /Ion Popescu-Gopo
В ролях: Джилда Манолеску, Меди Маринеску, Ингрид Челия, Ион Попеску-Гопо, Анда Калугарену, Михай Константинеску, Александрина Халич, Паула Радулеску, Адриан Стефанеску
Роли дублировали: Мария Виноградова, Людмила Гнилова, Наталья Гурзо, Рогволд Суховерко, Клара Румянова, Александр Воеводин, Георгий Вицин, Алина Покровская
Описание: Музыкальная сказка по произведению И. Крянгэ.
Это «чудесный-расчудесный» фильм с прекрасной музыкой, в котором мультипликационные герои «играют» наравне с живыми актёрами.
Лягушонок Кваки сказал неправду (по незнанию) — и вода вокруг его лапок заледенела. Бабочка Амидэ не может научиться летать. А у светлячка Скипирича постоянно загораются его башмачки, когда он пытается светить. Две девочки-сестрички — Мария и Мирабела решают помочь бедолагам. Для этого надо попасть к доброй Лесной Фее, живущей в заколдованном лесу. Как ни страшно было сестрёнкам, но они всё-таки отправились в путешествие... Самые большие чудеса в этом волшебном приключении происходят безо всякой волшебной палочки, а лишь при помощи дружбы, любви и доброты
Доп. информация: Музыкальная сказка румынского режиссера Иона Попеску-Гопо, где сочетается игровое кино и анимация. Волшебная музыка композитора Евгения Доги сделали этот фильм фаворитом многих поколений. А известнейший мультипликатор Борис Котов вселил живую душу в мультипликационные персонажи. Песни на слова Григория Виеру исполняет Леонид Серебренников
Качество: DVDRip-AVC
Видео: 718x576@1021x576, DAR=16:9, 25 fps, H264, ~2371 Kbps avg
Аудио#1: Русский (Дубляж) 48 kHz, AC3 Dolby Digital, 2/0 (L,R) ch, ~192.00 kbps avg
Аудио#2: Румынский (Дубляж) 48 kHz, AC3 Dolby Digital, 2/0 (L,R) ch, ~192.00 kbps avg-Релиз группы:

Примечания к релизу

Это рип с румынского ДВД. Более светлые и естественные цвета в отличие от издания КП
Русская дорожка взята отсюда - http://rutracker.org/forum/viewtopic.php?t=3299299. Спасибо lange97. Дорожка частично очищена от щелчков

Скриншоты (анаморф)

MediaInfo

General
Complete name : I:\MM\Maria Mirabela.1981.mkv
Format : Matroska
File size : 1.28 GiB
Duration : 1h 5mn
Overall bit rate : 2 811 Kbps
Movie name : Nyc-2008 / rutracker.org / RG Multfilmy
Encoded date : UTC 2011-03-15 10:32:49
Writing application : mkvmerge v4.6.0 ('Still Crazy After All These Years') зібрано Mar 10 2011 02:50:32
Writing library : libebml v1.2.0 + libmatroska v1.1.0
Video
ID : 1
Format : AVC
Format/Info : Advanced Video Codec
Format profile : High@L4.0
Format settings, CABAC : Yes
Format settings, ReFrames : 15 frames
Codec ID : V_MPEG4/ISO/AVC
Duration : 1h 5mn
Bit rate : 2 371 Kbps
Width : 718 pixels
Height : 576 pixels
Display aspect ratio : 16:9
Frame rate : 25.000 fps
Color space : YUV
Chroma subsampling : 4:2:0
Bit depth : 8 bits
Scan type : Progressive
Bits/(Pixel*Frame) : 0.229
Stream size : 1.08 GiB (84%)
Writing library : x264 core 114 r1913kMod 5fd3dce
Encoding settings : cabac=1 / ref=15 / deblock=1:-1:-1 / analyse=0x3:0x113 / me=umh / subme=10 / psy=1 / fade_compensate=0.00 / psy_rd=1.00:0.10 / mixed_ref=1 / me_range=24 / chroma_me=1 / trellis=2 / 8x8dct=1 / cqm=0 / deadzone=21,11 / fast_pskip=0 / chroma_qp_offset=-3 / threads=6 / sliced_threads=0 / nr=0 / decimate=1 / interlaced=0 / constrained_intra=0 / bframes=8 / b_pyramid=2 / b_adapt=2 / b_bias=0 / direct=1 / weightb=1 / open_gop=0 / weightp=2 / keyint=250 / keyint_min=25 / scenecut=40 / intra_refresh=0 / rc_lookahead=60 / rc=crf / mbtree=1 / crf=17.9900 / qcomp=0.60 / qpmin=0 / qpmax=69 / qpstep=4 / ip_ratio=1.40 / aq=2:1.00
Audio #1
ID : 2
Format : AC-3
Format/Info : Audio Coding 3
Mode extension : CM (complete main)
Codec ID : A_AC3
Duration : 1h 5mn
Bit rate mode : Constant
Bit rate : 192 Kbps
Channel(s) : 2 channels
Channel positions : Front: L R
Sampling rate : 48.0 KHz
Bit depth : 16 bits
Stream size : 89.5 MiB (7%)
Language : Russian
Audio #2
ID : 3
Format : AC-3
Format/Info : Audio Coding 3
Mode extension : CM (complete main)
Codec ID : A_AC3
Duration : 1h 5mn
Bit rate mode : Constant
Bit rate : 192 Kbps
Channel(s) : 2 channels
Channel positions : Front: L R
Sampling rate : 48.0 KHz
Bit depth : 16 bits
Stream size : 89.5 MiB (7%)
Language : rom

_________________
Показать сообщения:    

Текущее время: Сегодня 02:40

Часовой пояс: GMT



Вы не можете начинать темы
Вы не можете отвечать на сообщения
Вы не можете редактировать свои сообщения
Вы не можете удалять свои сообщения
Вы не можете голосовать в опросах
Вы не можете прикреплять файлы к сообщениям
Вы не можете скачивать файлы