Мария-Антуанетта / Marie Antoinette (В.С. Ван Дайк, Жюльен Дювивье / W.S. Van Dyke, Julien Duvivier) [1938, США, драма, мелодрама, биография, история, WEB-DL 720p] MVO (Светла) + Sub Eng + Original Eng :: Ивановский Торрент трекер
Важное объявление!
У Нас Все раздачи мультитрекерные, при нуле пиров в релизах, можете смело вставать на закачку!
Статистика раздачи
Размер:     |    Зарегистрирован:     |    Скачан:     |   
Нет
 
     
 
 
Автор Сообщение

HUNTER

Стаж:
4 года 11 месяцев
Сообщений:
66054

Репутация: 101

[+] [-]
Вне форума [Профиль] [ЛС]

Мария-Антуанетта / Marie Antoinette
Страна: США
Жанр: драма, мелодрама, биография, история
Год выпуска: 1938
Продолжительность: 02:37:18
Перевод: Профессиональный (многоголосый закадровый) Светла
Cубтитры: английские
Оригинальная аудиодорожка: английский
Режиссер: В.С. Ван Дайк, Жюльен Дювивье / W.S. Van Dyke, Julien Duvivier
В ролях: Норма Ширер, Тайрон Пауэр, Джон Бэрримор, Роберт Морли, Анита Луиз, Джозеф Шилдкраут, Глэдис Джордж, Генри Стивенсон, Кора Уизерспун, Барнетт Паркер
Описание: 16 мая 1770 г. 15-летняя Мария-Антуанетта была выдана матерью-императрицей Австрии замуж за Луи Августа, наследника трона Франции. Супруг не вызвал у возвышенной девушки восхищения: одутловатый и туповатый — он только раздражал юную принцессу. Еще больше расстраивали Марию ехидный, извращенный и больной король Людовик XV и его фаворитка — интриганка мадемуазель дю Барри, почувствовавшая угрозу со стороны будущей королевы.
Следуя совету герцога Орлеанского, Мария ищет развлечения в светской бурлящей жизни и состоит в любовной связи с графом Акселем де Ферсеном. Однажды дело доходит до скандала, когда Мария публично на балу оскорбляет дю Барри, ее даже намерены с позором отправить обратно в Австрию, но король внезапно умирает, и Мария становится королевой Франции. Расходы двора при ее правлении огромны — королеву называют «госпожа дефицит». С первого дня Французской буржуазной революции королева стала ожесточенным врагом конституционно-демократического режима.
5 октября 1792 года разъяренная парижская чернь ворвалась в Версаль, и на следующий день королевская семья была арестована, В январе 1793 года Людовик XVI был приговорен к смерти, а спустя десять месяцев Мария-Антуанетта 16 октября 1793 была гильотинирована.
Доп. информация:


За дорожку с переводом спасибо palmeiras
Сэмпл: http://sendfile.su/1035537
Тип релиза: WEB-DL 720p
Контейнер: MKV
Видео: AVC, 990x720, L3.1, 23.976fps, 4134kbps
Аудио 1: Russian: AC3, 48000Hz, 2ch, 192kbps
Аудио 2: English: AC3, 48000Hz, 2ch, 192kbps - DVD
Аудио 3: English: AAC, 48000Hz, 2ch, 121kbps - WEB-DL

MediaInfo

Общее
Уникальный идентификатор : 193005223982287669891304742871677716422 (0x9133743B3FB305AEBFAA44BE865AC7C6)
Полное имя : T:\Marie Antoinette (WEB-DL 720p).mkv
Формат : Matroska
Версия формата : Version 4 / Version 2
Размер файла : 5,10 Гбайт
Продолжительность : 2 ч. 37 м.
Общий поток : 4640 Кбит/сек
Название фильма : Marie Antoinette (1938)
Дата кодирования : UTC 2014-10-15 07:28:54
Программа кодирования : mkvmerge v6.9.1 ('Blue Panther') 64bit built on Apr 18 2014 18:23:38
Библиотека кодирования : libebml v1.3.0 + libmatroska v1.4.1
Attachements : cover.jpg
Видео
Идентификатор : 1
Формат : AVC
Формат/Информация : Advanced Video Codec
Профиль формата : High@L3.1
Параметр CABAC формата : Нет
Параметр ReFrames формата : 2 кадра
Идентификатор кодека : V_MPEG4/ISO/AVC
Продолжительность : 2 ч. 37 м.
Ширина : 990 пикселей
Высота : 720 пикселей
Соотношение сторон : 1,375
Режим частоты кадров : Постоянный
Частота кадров : 23,976 кадра/сек
Цветовое пространство : YUV
Субдискретизация насыщенности : 4:2:0
Битовая глубина : 8 бит
Тип развёртки : Прогрессивная
Язык : English
Default : Да
Forced : Нет
Основные цвета : BT.709
Характеристики трансфера : BT.709
Коэффициенты матрицы : BT.709
Аудио #1
Идентификатор : 2
Формат : AC-3
Формат/Информация : Audio Coding 3
Расширение режима : CM (complete main)
Параметр Endianness формата : Big
Идентификатор кодека : A_AC3
Продолжительность : 2 ч. 37 м.
Вид битрейта : Постоянный
Битрейт : 192 Кбит/сек
Каналы : 2 канала
Расположение каналов : Front: L R
Частота : 48,0 КГц
Битовая глубина : 16 бит
Метод сжатия : С потерями
Размер потока : 216 Мбайт (4%)
Заголовок : Светла
Язык : Russian
Default : Да
Forced : Нет
Аудио #2
Идентификатор : 3
Формат : AC-3
Формат/Информация : Audio Coding 3
Расширение режима : CM (complete main)
Параметр Endianness формата : Big
Идентификатор кодека : A_AC3
Продолжительность : 2 ч. 37 м.
Вид битрейта : Постоянный
Битрейт : 192 Кбит/сек
Каналы : 2 канала
Расположение каналов : Front: L R
Частота : 48,0 КГц
Битовая глубина : 16 бит
Метод сжатия : С потерями
Размер потока : 216 Мбайт (4%)
Заголовок : DVD
Язык : English
Default : Нет
Forced : Нет
Аудио #3
Идентификатор : 4
Формат : AAC
Формат/Информация : Advanced Audio Codec
Профиль формата : LC
Идентификатор кодека : A_AAC
Продолжительность : 2 ч. 37 м.
Каналы : 2 канала
Расположение каналов : Front: L R
Частота : 48,0 КГц
Метод сжатия : С потерями
Заголовок : WEB-DL
Язык : English
Default : Нет
Forced : Нет
Текст #1
Идентификатор : 5
Формат : UTF-8
Идентификатор кодека : S_TEXT/UTF8
Идентификатор кодека/Информация : UTF-8 Plain Text
Язык : English
Default : Нет
Forced : Нет
Текст #2
Идентификатор : 6
Формат : UTF-8
Идентификатор кодека : S_TEXT/UTF8
Идентификатор кодека/Информация : UTF-8 Plain Text
Заголовок : SDH
Язык : English
Default : Нет
Forced : Нет
Меню
00:00:00.000 : en:Overture
00:03:31.000 : en:Credits
00:05:12.000 : en:Marriage contract
00:09:14.000 : en:Auspicious meeting
00:12:55.000 : en:Nervous newlyweds
00:17:26.000 : en:Their secret
00:21:52.000 : en:After me the deluge
00:25:55.000 : en:Paris is waiting for you
00:28:34.000 : en:Anniversary gifts
00:32:58.000 : en:Gala lifestyle
00:38:19.000 : en:Russian for her sake
00:40:47.000 : en:Count de Fersen regrets
00:46:07.000 : en:Count de Marcey requests
00:50:23.000 : en:Roll in the gutter
00:55:28.000 : en:Future queeen no longer
00:59:24.000 : en:When you're dead
01:00:58.000 : en:Everything leads me to thee
01:08:02.000 : en:Great loves come with tears
01:11:12.000 : en:Long live the queen
01:15:46.000 : en:Farewell meeting
01:21:27.000 : en:Intermission
01:21:53.000 : en:Entr'Acte
01:25:03.000 : en:Public childbirth
01:26:57.000 : en:Seeds of uprising
01:30:36.000 : en:False sale
01:34:01.000 : en:Royal scandal
01:37:28.000 : en:Verdict and revolt
01:40:58.000 : en:Addressing the troops
01:44:09.000 : en:Storming Versailles
01:48:01.000 : en:Is this your liberty?
01:50:17.000 : en:Lovers reunited
01:53:58.000 : en:Well done
01:56:29.000 : en:Escape
02:00:46.000 : en:Face in the coin
02:05:08.000 : en:Rerounted
02:08:20.000 : en:Imprisoned
02:13:01.000 : en:Death vote
02:15:25.000 : en:Last supper
02:20:35.000 : en:King's keepsakes
02:22:40.000 : en:Farewell to young Louis
02:26:46.000 : en:No mercy for the dying?
02:30:24.000 : en:Never say goodbye
02:33:44.000 : en:To the guillotine
02:35:39.000 : en:Exit Music

Скриншоты


_________________
Показать сообщения:    

Текущее время: Сегодня 09:04

Часовой пояс: GMT



Вы не можете начинать темы
Вы не можете отвечать на сообщения
Вы не можете редактировать свои сообщения
Вы не можете удалять свои сообщения
Вы не можете голосовать в опросах
Вы не можете прикреплять файлы к сообщениям
Вы не можете скачивать файлы